<?xml version="1.0" standalone="no"?>
<!DOCTYPE svg PUBLIC "-//W3C//DTD SVG 1.1//EN" "http://www.w3.org/Graphics/SVG/1.1/DTD/svg11.dtd" >
<svg>
<metadata>
Created by FontForge 20090622 at Sat Jul 21 14:47:00 2018
 By deploy user
Copyright &#194;&#169; 2015 Monotype ITC Inc. All rights reserved.
</metadata>
<defs>
<font id="ITCAvantGardeStd-Demi" horiz-adv-x="560" >
  <font-face 
    font-family="ITC Avant Garde Std Bk"
    font-weight="600"
    font-stretch="normal"
    units-per-em="1000"
    panose-1="2 11 7 2 2 2 2 2 2 4"
    ascent="740"
    descent="-260"
    x-height="555"
    cap-height="740"
    bbox="-123 -251 1222 1021"
    underline-thickness="50"
    underline-position="-50"
    unicode-range="U+000D-U+FB04"
  />
<missing-glyph horiz-adv-x="500" 
d="M487 0h-475v665h475v-665zM250 375l161 243h-323zM60 91l161 242l-161 242v-484zM440 90v485l-162 -242zM411 48l-161 242l-162 -242h323z" />
    <glyph glyph-name="f_t" unicode="ft" horiz-adv-x="532" 
d="M451 0h-133v437h-123v-437h-133v437h-47v118h47q6 78 56 131.5t130 53.5h32v-131h-4q-41 0 -57 -10.5t-23 -43.5h122v185h133v-185h80v-118h-80v-437z" />
    <glyph glyph-name="f_f_t" unicode="fft" horiz-adv-x="788" 
d="M707 0h-133v437h-123v-437h-133v437h-123v-437h-133v437h-47v118h47q6 78 56 131.5t130 53.5h32v-131h-4q-41 0 -57 -10.5t-23 -43.5h122q6 78 56 131.5t130 53.5h32v-131h-4q-42 0 -57.5 -10.5t-22.5 -43.5h122v185h133v-185h80v-118h-80v-437z" />
    <glyph glyph-name="f_f" unicode="ff" horiz-adv-x="536" 
d="M451 0h-133v437h-123v-437h-133v437h-47v118h47q6 78 56 131.5t130 53.5h32v-131h-4q-41 0 -57 -10.5t-23 -43.5h122q6 78 56 131.5t130 53.5h25v-131h-4q-38 0 -52 -10.5t-21 -43.5h77v-118h-78v-437z" />
    <glyph glyph-name="fi" unicode="fi" horiz-adv-x="520" 
d="M461 618h-133v122h133v-122zM461 0h-133v437h-123v-437h-133v437h-47v118h47q6 78 56 131.5t130 53.5h32v-131h-4q-42 0 -57.5 -10.5t-22.5 -43.5h255v-555z" />
    <glyph glyph-name="fl" unicode="fl" horiz-adv-x="520" 
d="M461 0h-133v437h-123v-437h-133v437h-47v118h47q6 78 56 131.5t130 53.5h32v-131h-4q-42 0 -57.5 -10.5t-22.5 -43.5h122v185h133v-740z" />
    <glyph glyph-name="f_f_i" unicode="ffi" horiz-adv-x="761" 
d="M707 609h-133v131h133v-131zM707 0h-133v437h-123v-437h-133v437h-123v-437h-133v437h-47v118h47q6 78 56 131.5t130 53.5h32v-131h-4q-41 0 -57 -10.5t-23 -43.5h122q6 78 56 131.5t130 53.5h32v-131h-4q-39 0 -56 -11t-24 -43h255v-555z" />
    <glyph glyph-name="f_f_l" unicode="ffl" horiz-adv-x="761" 
d="M707 0h-133v437h-123v-437h-133v437h-123v-437h-133v437h-47v118h47q6 78 56 131.5t130 53.5h32v-131h-4q-41 0 -57 -10.5t-23 -43.5h122q6 78 56 131.5t130 53.5h32v-131h-4q-39 0 -56 -11t-24 -43h122v185h133v-740z" />
    <glyph glyph-name=".notdef" horiz-adv-x="500" 
d="M487 0h-475v665h475v-665zM250 375l161 243h-323zM60 91l161 242l-161 242v-484zM440 90v485l-162 -242zM411 48l-161 242l-162 -242h323z" />
    <glyph glyph-name=".null" horiz-adv-x="0" 
 />
    <glyph glyph-name="nonmarkingreturn" horiz-adv-x="333" 
 />
    <glyph glyph-name="NULL" horiz-adv-x="0" 
 />
    <glyph glyph-name="NULL" horiz-adv-x="0" 
 />
    <glyph glyph-name="CR" unicode="&#xd;" horiz-adv-x="280" 
 />
    <glyph glyph-name="space" unicode=" " horiz-adv-x="280" 
 />
    <glyph glyph-name="exclam" unicode="!" horiz-adv-x="280" 
d="M206 188h-133v552h133v-552zM206 0h-133v127h133v-127z" />
    <glyph glyph-name="quotedbl" unicode="&#x22;" horiz-adv-x="360" 
d="M125 444h-80l-26 296h133zM315 444h-82l-25 296h133z" />
    <glyph glyph-name="numbersign" unicode="#" 
d="M378 0h-100l27 197h-91l-27 -197h-100l27 197h-85l4 95h95l16 116h-85l4 95h94l27 197h100l-27 -197h91l27 197h100l-27 -197h77l-4 -95h-86l-16 -116h76l-4 -95h-86zM319 292l16 116h-91l-16 -116h91z" />
    <glyph glyph-name="dollar" unicode="$" 
d="M349 -86h-126v131q-81 22 -123 75t-42 129h132q2 -39 27 -62.5t62 -23.5q38 0 63.5 25t25.5 62q0 36 -21.5 57t-68.5 33q-192 49 -192 204q0 67 37.5 117.5t99.5 67.5v128h126v-130q55 -18 89.5 -63.5t39.5 -107.5h-125q-18 61 -68 61q-28 0 -47 -20.5t-19 -51.5
q0 -18 8 -32t25.5 -24t30.5 -15t38 -12.5t33 -10.5q147 -52 147 -201q0 -74 -40.5 -129t-111.5 -75v-132z" />
    <glyph glyph-name="percent" unicode="%" horiz-adv-x="860" 
d="M216 394q-74 0 -127 53.5t-53 126.5q0 75 53 128t127 53q75 0 127.5 -53.5t52.5 -127.5t-53 -127t-127 -53zM325 0h-101l306 740h102zM216 505q28 0 48.5 20.5t20.5 49.5t-20 49t-50 20q-29 0 -48.5 -20.5t-19.5 -49.5q0 -28 21 -48.5t48 -20.5zM642 -15
q-76 0 -128.5 53.5t-52.5 127.5q0 75 54 128t127 53q75 0 127.5 -53.5t52.5 -127.5t-53 -127.5t-127 -53.5zM642 96q28 0 48.5 21t20.5 49t-20 49t-49 21t-49.5 -20.5t-20.5 -49.5q0 -28 21 -49t49 -21z" />
    <glyph glyph-name="ampersand" unicode="&#x26;" horiz-adv-x="680" 
d="M665 71l-97 -86l-102 111q-78 -111 -188 -111q-101 0 -172.5 69t-71.5 166q0 65 33 115t106 94q-35 41 -48.5 72t-13.5 67q0 79 54 133t134 54q81 0 136 -53t55 -130q0 -116 -117 -182l68 -76l72 123h148l-127 -224zM290 482q41 20 57.5 39.5t16.5 44.5q0 29 -18 46
t-48 17q-25 0 -43 -18t-18 -43q0 -37 53 -86zM373 197l-116 126q-49 -23 -69.5 -49t-20.5 -60q0 -43 29.5 -71t72.5 -28q60 0 104 82z" />
    <glyph glyph-name="quotesingle" unicode="'" horiz-adv-x="220" 
d="M151 444h-81l-26 296h133z" />
    <glyph glyph-name="parenleft" unicode="(" horiz-adv-x="380" 
d="M350 -13v-144q-113 35 -194.5 167t-81.5 287q0 150 75.5 279.5t200.5 177.5v-144q-68 -56 -103.5 -137t-35.5 -175q0 -91 38 -179t101 -132z" />
    <glyph glyph-name="parenright" unicode=")" horiz-adv-x="380" 
d="M37 -157v144q68 56 103.5 137t35.5 175q0 91 -38 179t-101 132v144q113 -35 194.5 -167t81.5 -287q0 -150 -75.5 -279.5t-200.5 -177.5z" />
    <glyph glyph-name="asterisk" unicode="*" horiz-adv-x="440" 
d="M328 493l-61 -36l-46 92l-47 -92l-61 36l57 83l-103 -5v67l102 -5l-55 83l56 39l51 -92l51 92l56 -39l-56 -83l101 5v-67l-101 5z" />
    <glyph glyph-name="plus" unicode="+" horiz-adv-x="600" 
d="M360 0h-120v193h-192v120h192v193h120v-193h192v-120h-192v-193z" />
    <glyph glyph-name="comma" unicode="," horiz-adv-x="280" 
d="M74 -141v67q35 7 46.5 21.5t11.5 52.5h-59v133h133v-144q0 -57 -35 -93.5t-97 -36.5z" />
    <glyph glyph-name="hyphen" unicode="-" horiz-adv-x="420" 
d="M349 230h-278v118h278v-118z" />
    <glyph glyph-name="period" unicode="." horiz-adv-x="280" 
d="M206 0h-133v133h133v-133z" />
    <glyph glyph-name="slash" unicode="/" horiz-adv-x="460" 
d="M140 -100h-134l313 840h135z" />
    <glyph glyph-name="zero" unicode="0" 
d="M529 510v-281q0 -106 -70 -175t-181 -69q-96 0 -171 65.5t-75 177.5v281q0 108 70.5 177t182.5 69q105 0 174.5 -71.5t69.5 -173.5zM396 242v266q0 50 -32.5 85.5t-82.5 35.5q-52 0 -84 -36.5t-32 -89.5v-258q0 -59 31 -96.5t85 -37.5t84.5 36.5t30.5 94.5z" />
    <glyph glyph-name="one" unicode="1" 
d="M363 0h-133v614h-93v126h226v-740z" />
    <glyph glyph-name="two" unicode="2" 
d="M523 0h-479v126l266 247q80 74 80 145q0 48 -30 79.5t-78 31.5q-45 0 -79 -32.5t-34 -100.5v-10h-132q-1 5 -1 16q0 115 72.5 184t170.5 69q103 0 173.5 -71t70.5 -172q0 -64 -32.5 -123.5t-110.5 -128.5l-150 -134h293v-126z" />
    <glyph glyph-name="three" unicode="3" 
d="M250 354h-20v126h21q47 0 71 21.5t24 57.5q0 70 -66 70q-27 0 -45.5 -19t-20.5 -49h-133q7 92 64 143t135 51q80 0 139.5 -59.5t59.5 -140.5q0 -85 -64 -131q57 -24 87 -74t30 -117q0 -105 -74 -176.5t-180 -71.5q-101 0 -172 67t-78 171h133q5 -49 39 -80.5t81 -31.5
q48 0 83 36t35 84q0 55 -39 89t-110 34z" />
    <glyph glyph-name="four" unicode="4" 
d="M467 0h-133v111h-319v109l340 520h112v-503h78v-126h-78v-111zM334 237v278h-2l-174 -278h176z" />
    <glyph glyph-name="five" unicode="5" 
d="M177 320l-119 33l70 387h335v-126h-235l-24 -136q52 21 95 21q100 0 168 -77t68 -179q0 -106 -74.5 -182t-182.5 -76q-97 0 -173 68.5t-80 166.5h133q9 -51 40.5 -80t76.5 -29q55 0 91 39t36 93q0 51 -36 90.5t-89 39.5q-59 0 -100 -53z" />
    <glyph glyph-name="six" unicode="6" 
d="M445 739l-164 -250q9 3 31 3q95 0 159.5 -71.5t64.5 -169.5q0 -111 -74.5 -188.5t-181.5 -77.5q-110 0 -183.5 77.5t-73.5 187.5q0 83 61 176l205 313h156zM280 111q51 0 87 37.5t36 90.5t-36.5 91.5t-90.5 38.5q-49 0 -84.5 -37t-35.5 -88q0 -55 36 -94t88 -39z" />
    <glyph glyph-name="seven" unicode="7" 
d="M231 0h-148l276 614h-297v126h436v-126z" />
    <glyph glyph-name="eight" unicode="8" 
d="M417 411q110 -60 110 -186q0 -99 -73.5 -169.5t-173.5 -70.5t-173.5 70.5t-73.5 169.5q0 127 110 186q-66 61 -66 140q0 85 59 144.5t144 59.5q86 0 145 -59.5t59 -144.5q0 -73 -67 -140zM359 549q0 33 -23.5 56.5t-56.5 23.5q-30 0 -53.5 -23.5t-23.5 -56.5
q0 -32 23 -55.5t55 -23.5t55.5 23.5t23.5 55.5zM394 225q0 46 -33.5 80t-81.5 34q-46 0 -79.5 -34t-33.5 -80q0 -47 33.5 -80.5t80.5 -33.5t80.5 34t33.5 80z" />
    <glyph glyph-name="nine" unicode="9" 
d="M271 0h-156l164 250q-15 -3 -32 -3q-93 0 -158 70t-65 171q0 109 74 187.5t182 78.5q110 0 183.5 -77t73.5 -188q0 -86 -61 -178zM281 370q51 0 87 37t36 88q0 54 -35 93.5t-89 39.5q-51 0 -87 -38t-36 -90q0 -56 35 -93t89 -37z" />
    <glyph glyph-name="colon" unicode=":" horiz-adv-x="280" 
d="M206 422h-133v133h133v-133zM206 0h-133v133h133v-133z" />
    <glyph glyph-name="semicolon" unicode=";" horiz-adv-x="280" 
d="M206 422h-133v133h133v-133zM74 -141v67q35 7 46.5 21.5t11.5 52.5h-59v133h133v-144q0 -57 -35 -93t-97 -37z" />
    <glyph glyph-name="less" unicode="&#x3c;" horiz-adv-x="600" 
d="M554 -8l-508 214v94l508 214v-115l-352 -146l352 -146v-115z" />
    <glyph glyph-name="equal" unicode="=" horiz-adv-x="600" 
d="M552 305h-504v120h504v-120zM552 81h-504v120h504v-120z" />
    <glyph glyph-name="greater" unicode="&#x3e;" horiz-adv-x="600" 
d="M554 206l-508 -214v115l352 146l-352 146v115l508 -214v-94z" />
    <glyph glyph-name="question" unicode="?" 
d="M326 187h-133v19q0 73 21.5 122t79.5 99q38 33 51 53.5t13 46.5q0 44 -25 69.5t-69 25.5q-43 0 -64.5 -22.5t-28.5 -75.5h-133q8 113 76 172t156 59q95 0 158 -65.5t63 -162.5q0 -52 -24.5 -93t-72.5 -85q-44 -40 -56 -65.5t-12 -75.5v-21zM326 0h-133v133h133v-133z" />
    <glyph glyph-name="at" unicode="@" horiz-adv-x="740" 
d="M642 149h76q-49 -76 -127 -118.5t-170 -42.5q-154 0 -263 104.5t-108 258.5q1 149 107.5 254.5t258.5 106.5q137 1 235.5 -83.5t98.5 -213.5q0 -78 -35 -142q-32 -59 -92 -98.5t-110 -39.5q-26 0 -41.5 16t-16.5 41h-2q-43 -57 -109 -57q-63 0 -105.5 48t-42.5 113
q0 101 61.5 176.5t153.5 75.5q81 0 104 -69h2l15 55h83l-72 -273q-3 -12 -3 -22q0 -20 18 -20q40 0 77 58t37 122q0 109 -71.5 176t-185.5 67q-120 0 -201.5 -86t-81.5 -208q0 -120 79 -205t214 -85q62 0 119.5 23.5t97.5 67.5zM362 219q53 0 90.5 51t37.5 109
q0 37 -21.5 61t-56.5 24q-52 0 -90.5 -49t-38.5 -107q0 -40 21.5 -64.5t57.5 -24.5z" />
    <glyph glyph-name="A" unicode="A" horiz-adv-x="740" 
d="M732 0h-151l-79 191h-265l-79 -191h-151l308 740h107zM453 320l-84 227h-2l-84 -227h170z" />
    <glyph glyph-name="B" unicode="B" horiz-adv-x="580" 
d="M282 0h-212v740h175q143 0 203 -61q59 -61 59 -135q0 -94 -83 -140q127 -47 127 -184q0 -91 -66 -155.5t-203 -64.5zM207 452h48q115 0 115 80q0 38 -27.5 59t-75.5 21h-60v-160zM207 128h72q135 0 135 98q0 46 -36.5 72t-95.5 26h-75v-196z" />
    <glyph glyph-name="C" unicode="C" horiz-adv-x="780" 
d="M603 206h159q-42 -99 -137.5 -160t-204.5 -61q-156 0 -271 114t-115 274q0 155 113 268.5t270 113.5q112 0 208 -61t141 -165h-156q-85 98 -198 98q-99 0 -170 -78t-71 -178q0 -101 73 -179.5t173 -78.5q103 0 186 93z" />
    <glyph glyph-name="D" unicode="D" horiz-adv-x="700" 
d="M241 0h-178v740h177q223 0 320 -110q39 -44 62.5 -100t29 -90t5.5 -63q0 -160 -96 -264q-55 -59 -129 -86t-191 -27zM200 128h44q145 0 213 73q63 67 63 167q0 97 -65 168q-70 76 -215 76h-40v-484z" />
    <glyph glyph-name="E" unicode="E" horiz-adv-x="520" 
d="M459 0h-398v740h398v-128h-261v-181h250v-128h-250v-175h261v-128z" />
    <glyph glyph-name="F" unicode="F" horiz-adv-x="480" 
d="M198 0h-137v740h377v-128h-240v-181h229v-128h-229v-303z" />
    <glyph glyph-name="G" unicode="G" horiz-adv-x="840" 
d="M817 377v-12q0 -160 -118 -271q-116 -109 -274 -109q-103 0 -194 48t-147.5 137.5t-56.5 199.5q0 158 116.5 271.5t277.5 113.5q72 0 144 -27t130.5 -81t84.5 -124h-164q-32 48 -86 76t-112 28q-107 0 -180.5 -76t-73.5 -182q0 -99 71.5 -177.5t189.5 -78.5
q69 0 128 36.5t91 99.5h-310v128h483z" />
    <glyph glyph-name="H" unicode="H" horiz-adv-x="680" 
d="M610 0h-137v311h-265v-311h-137v740h137v-301h265v301h137v-740z" />
    <glyph glyph-name="I" unicode="I" horiz-adv-x="280" 
d="M209 0h-137v740h137v-740z" />
    <glyph glyph-name="J" unicode="J" horiz-adv-x="480" 
d="M272 198v542h137v-534q0 -105 -58 -163t-148 -58q-78 0 -132 49t-69 140h138q14 -61 65 -61q33 0 50 23.5t17 61.5z" />
    <glyph glyph-name="K" unicode="K" horiz-adv-x="620" 
d="M620 0h-161l-231 325h-2v-325h-137v740h137v-320h2l231 320h161l-279 -364z" />
    <glyph glyph-name="L" unicode="L" horiz-adv-x="440" 
d="M435 0h-363v740h137v-612h226v-128z" />
    <glyph glyph-name="M" unicode="M" horiz-adv-x="900" 
d="M837 0h-137v555h-3l-189 -555h-116l-190 555h-2v-555h-137v740h190l197 -560h2l195 560h190v-740z" />
    <glyph glyph-name="N" unicode="N" horiz-adv-x="740" 
d="M671 0h-153l-309 538h-2v-538h-137v740h156l306 -538h2v538h137v-740z" />
    <glyph glyph-name="O" unicode="O" horiz-adv-x="840" 
d="M807 368q0 -158 -113 -270.5t-274 -112.5q-156 0 -271.5 110.5t-115.5 272.5q0 157 111 272t276 115q161 0 274 -113.5t113 -273.5zM420 113q106 0 178 76t72 180q0 105 -72.5 181.5t-178.5 76.5q-102 0 -175.5 -76.5t-73.5 -181.5q0 -104 72.5 -180t177.5 -76z" />
    <glyph glyph-name="P" unicode="P" 
d="M209 0h-137v740h225q120 0 184 -63.5t64 -165.5q0 -104 -64.5 -166.5t-182.5 -62.5h-89v-282zM209 410h48q87 0 119 27t32 74q0 49 -32 75t-118 26h-49v-202z" />
    <glyph glyph-name="Q" unicode="Q" horiz-adv-x="840" 
d="M824 -15h-11q-53 0 -94 14t-90 47q-96 -61 -210 -61q-101 0 -189.5 48.5t-143 137.5t-54.5 197q0 159 112.5 273t274.5 114q157 0 272 -111.5t115 -270.5q0 -132 -81 -236q38 -24 99 -24v-128zM615 215h2q28 39 40 73t12 81q0 108 -73.5 183t-177.5 75q-101 0 -175 -75.5
t-74 -178.5q0 -14 2 -18q39 9 100 9q88 0 180 -40t164 -109zM520 135q-136 101 -250 101q-34 0 -58 -9q34 -53 89.5 -83.5t117.5 -30.5q48 0 101 22z" />
    <glyph glyph-name="R" unicode="R" horiz-adv-x="580" 
d="M565 0h-166l-196 283h-2v-283h-137v740h251q107 0 175 -67t68 -164q0 -30 -8.5 -62.5t-28.5 -69t-60.5 -65t-96.5 -39.5zM201 386h91q59 0 94 30t35 84q0 52 -37 82t-92 30h-91v-226z" />
    <glyph glyph-name="S" unicode="S" horiz-adv-x="520" 
d="M475 544h-140v1q-3 38 -24 60t-59 22q-33 0 -54.5 -21t-21.5 -54q0 -67 95 -94q117 -35 169.5 -90.5t52.5 -146.5q0 -107 -68.5 -171.5t-171.5 -64.5q-98 0 -166.5 63.5t-74.5 163.5h144q5 -46 31 -72.5t67 -26.5q42 0 72 27t30 67q0 73 -95 107q-105 38 -142 63
q-80 55 -80 167q0 92 63.5 151.5t153.5 59.5q87 0 150.5 -59.5t68.5 -151.5z" />
    <glyph glyph-name="T" unicode="T" horiz-adv-x="420" 
d="M280 0h-137v612h-137v128h412v-128h-138v-612z" />
    <glyph glyph-name="U" unicode="U" horiz-adv-x="640" 
d="M448 266v474h137v-488q0 -71 -25 -125t-65.5 -83.5t-84.5 -44t-89 -14.5q-35 0 -70 8t-71 28.5t-63 50t-44.5 77t-17.5 105.5v486h137v-474q0 -153 128 -153t128 153z" />
    <glyph glyph-name="V" unicode="V" horiz-adv-x="700" 
d="M408 0h-112l-288 740h144l198 -563h2l199 563h144z" />
    <glyph glyph-name="W" unicode="W" horiz-adv-x="900" 
d="M684 0h-109l-120 489h-2l-122 -489h-108l-216 740h140l128 -517h2l127 517h100l124 -517h2l129 517h140z" />
    <glyph glyph-name="X" unicode="X" horiz-adv-x="680" 
d="M676 0h-158l-178 256l-173 -256h-163l255 369l-255 371h163l173 -258l178 258h158l-256 -371z" />
    <glyph glyph-name="Y" unicode="Y" horiz-adv-x="620" 
d="M378 0h-137v273l-243 467h150l161 -340l162 340h151l-244 -467v-273z" />
    <glyph glyph-name="Z" unicode="Z" horiz-adv-x="500" 
d="M481 0h-462v112l283 500h-268v128h428v-119l-281 -493h300v-128z" />
    <glyph glyph-name="bracketleft" unicode="[" horiz-adv-x="320" 
d="M284 -11v-146q-109 25 -163.5 110t-54.5 221v280q0 236 218 300v-146q-51 -22 -66 -67t-15 -137v-253q0 -132 81 -162z" />
    <glyph glyph-name="backslash" unicode="\" horiz-adv-x="640" 
d="M544 -100h-134l-314 840h135z" />
    <glyph glyph-name="bracketright" unicode="]" horiz-adv-x="320" 
d="M36 -157v146q51 23 66 67.5t15 136.5v253q0 132 -81 162v146q109 -25 163.5 -110t54.5 -221v-280q0 -236 -218 -300z" />
    <glyph glyph-name="asciicircum" unicode="^" horiz-adv-x="600" 
d="M527 375h-120l-107 248l-108 -248h-119l174 365h106z" />
    <glyph glyph-name="underscore" unicode="_" horiz-adv-x="500" 
d="M500 -125h-500v50h500v-50z" />
    <glyph glyph-name="grave" unicode="`" horiz-adv-x="420" 
d="M276 594l-226 125l57 102l222 -135z" />
    <glyph glyph-name="a" unicode="a" horiz-adv-x="660" 
d="M613 0h-122v69q-33 -39 -88 -63t-107 -24q-116 0 -192.5 86t-76.5 213q0 122 79.5 207.5t198.5 85.5q56 0 108.5 -27t75.5 -62h2v70h122v-555zM325 104q71 0 116.5 51t45.5 124q0 74 -46 123.5t-117 49.5q-70 0 -117 -51.5t-47 -125.5q0 -71 47.5 -121t117.5 -50z" />
    <glyph glyph-name="b" unicode="b" horiz-adv-x="660" 
d="M169 0h-122v740h133v-235q69 69 173 69q118 0 198.5 -87t80.5 -201q0 -124 -75.5 -214t-200.5 -90q-60 0 -103.5 19.5t-83.5 65.5v-67zM339 104q70 0 115 49.5t45 125.5q0 73 -46.5 123t-116.5 50q-67 0 -115.5 -49.5t-48.5 -117.5q0 -76 47 -128.5t120 -52.5z" />
    <glyph glyph-name="c" unicode="c" horiz-adv-x="640" 
d="M460 181h150q-35 -95 -108.5 -147t-169.5 -52q-123 0 -209 87.5t-86 210.5q0 121 86 207.5t208 86.5q95 0 171 -54t108 -149h-150q-45 81 -129 81q-70 0 -115.5 -49.5t-45.5 -124.5q0 -74 48 -124t119 -50q75 0 123 77z" />
    <glyph glyph-name="d" unicode="d" horiz-adv-x="660" 
d="M618 0h-122v68h-2q-26 -41 -73.5 -63.5t-103.5 -22.5q-117 0 -200 86t-83 209q0 128 86 212.5t200 84.5q97 0 165 -68v234h133v-740zM331 104q67 0 115.5 51.5t48.5 122.5q0 70 -48 122t-117 52q-64 0 -113.5 -51t-49.5 -119q0 -74 47.5 -126t116.5 -52z" />
    <glyph glyph-name="e" unicode="e" horiz-adv-x="640" 
d="M602 218h-431q8 -41 52 -77.5t101 -36.5q89 0 128 71h140q-27 -84 -103 -138.5t-165 -54.5q-125 0 -209 85t-84 209t83.5 211t208.5 87q121 0 204 -83.5t83 -205.5q0 -29 -8 -67zM167 325h307q-10 60 -49.5 93.5t-101.5 33.5q-57 0 -99 -32.5t-57 -94.5z" />
    <glyph glyph-name="f" unicode="f" horiz-adv-x="280" 
d="M195 0h-133v437h-47v118h47q7 105 63 152.5t119 47.5h36v-131q-49 0 -66 -14.5t-19 -54.5h78v-118h-78v-437z" />
    <glyph glyph-name="g" unicode="g" horiz-adv-x="660" 
d="M500 69l-2 2q-62 -89 -182 -89q-111 0 -197.5 86.5t-86.5 214.5q0 118 83.5 204.5t199.5 86.5q119 0 177 -87h2v68h129v-463q0 -146 -88 -232t-215 -86q-94 0 -170 50t-109 134h152q52 -62 137 -62q70 0 117.5 47.5t52.5 125.5zM331 104q68 0 113.5 53t45.5 126
q0 67 -48 118t-116 51q-66 0 -113.5 -49.5t-47.5 -120.5q0 -73 47.5 -125.5t118.5 -52.5z" />
    <glyph glyph-name="h" unicode="h" horiz-adv-x="600" 
d="M546 0h-133v289q0 85 -28 124t-86 39q-112 0 -112 -165v-287h-133v740h133v-224q61 58 144 58q23 0 48.5 -6t56 -23t54.5 -42t40 -67.5t16 -96.5v-339z" />
    <glyph glyph-name="i" unicode="i" horiz-adv-x="240" 
d="M186 618h-133v122h133v-122zM186 0h-133v555h133v-555z" />
    <glyph glyph-name="j" unicode="j" horiz-adv-x="260" 
d="M205 618h-133v122h133v-122zM16 -185v130q33 3 44.5 17t11.5 59v534h133v-535q0 -87 -51 -146t-138 -59z" />
    <glyph glyph-name="k" unicode="k" horiz-adv-x="580" 
d="M571 0h-168l-188 260h-2v-260h-133v740h133v-446h2l177 261h153l-200 -272z" />
    <glyph glyph-name="l" unicode="l" horiz-adv-x="240" 
d="M187 0h-133v740h133v-740z" />
    <glyph glyph-name="m" unicode="m" horiz-adv-x="940" 
d="M887 0h-133v312q0 67 -25.5 103.5t-75.5 36.5q-46 0 -81 -32t-35 -116v-304h-133v312q0 64 -28.5 102t-81.5 38q-55 0 -81 -39t-26 -130v-283h-133v555h122v-47h2q41 66 145 66t160 -87q62 87 179 87q97 0 161 -60t64 -180v-334z" />
    <glyph glyph-name="n" unicode="n" horiz-adv-x="600" 
d="M547 0h-133v279q0 173 -112 173q-42 0 -78.5 -34t-36.5 -115v-303h-133v555h123v-48q69 67 153 67q24 0 50.5 -6t57 -23t54 -43t39.5 -71.5t16 -102.5v-328z" />
    <glyph glyph-name="o" unicode="o" horiz-adv-x="640" 
d="M321 -18q-122 0 -209 87.5t-87 207.5q0 121 86 209t210 88q125 0 209.5 -87t84.5 -208q0 -126 -83.5 -211.5t-210.5 -85.5zM321 104q69 0 115 51t46 121t-46.5 123t-115.5 53q-66 0 -114 -52.5t-48 -122.5q0 -71 46.5 -122t116.5 -51z" />
    <glyph glyph-name="p" unicode="p" horiz-adv-x="660" 
d="M180 -185h-133v740h122v-65h2q67 84 180 84q120 0 199 -87t79 -207q0 -123 -80.5 -210.5t-197.5 -87.5q-53 0 -92 16t-79 55v-238zM334 104q67 0 114.5 52t47.5 122t-46 122t-115 52t-116 -51t-47 -123q0 -81 51 -127.5t111 -46.5z" />
    <glyph glyph-name="q" unicode="q" horiz-adv-x="660" 
d="M613 -185h-133v238q-67 -71 -169 -71q-119 0 -199.5 89t-80.5 212q0 117 83 204t198 87q116 0 177 -89h2v70h122v-740zM327 104q69 0 114.5 52t45.5 121q0 71 -46 123t-116 52q-66 0 -113.5 -50.5t-47.5 -121.5q0 -75 46 -125.5t117 -50.5z" />
    <glyph glyph-name="r" unicode="r" horiz-adv-x="320" 
d="M196 0h-133v555h122v-49h2q26 39 53 53.5t74 14.5h3v-129q-121 -5 -121 -129v-316z" />
    <glyph glyph-name="s" unicode="s" horiz-adv-x="440" 
d="M406 404h-130q-12 48 -53 48q-21 0 -36 -13.5t-15 -34.5t16.5 -32.5t74.5 -28.5q91 -27 124.5 -67.5t33.5 -99.5q0 -83 -56 -138.5t-138 -55.5q-84 0 -143 49t-65 144h136q15 -71 73 -71q26 0 43 16t17 40q0 27 -21.5 41t-83.5 35q-144 45 -144 166q0 73 55 122.5
t131 49.5q72 0 124.5 -47.5t56.5 -122.5z" />
    <glyph glyph-name="t" unicode="t" horiz-adv-x="300" 
d="M219 0h-133v437h-65v118h65v185h133v-185h80v-118h-80v-437z" />
    <glyph glyph-name="u" unicode="u" horiz-adv-x="600" 
d="M544 0h-122v56h-2q-54 -74 -135 -74q-107 0 -171 60.5t-64 186.5v326h133v-287q0 -164 116 -164q56 0 84 43.5t28 119.5v288h133v-555z" />
    <glyph glyph-name="v" unicode="v" 
d="M331 0h-104l-224 555h144l134 -368h3l126 368h146z" />
    <glyph glyph-name="w" unicode="w" horiz-adv-x="800" 
d="M586 0h-82l-104 360h-2l-105 -360h-82l-200 555h142l101 -339h2l91 339h106l90 -339h2l102 339h142z" />
    <glyph glyph-name="x" unicode="x" 
d="M556 0h-158l-119 190l-118 -190h-158l197 286l-172 269h149l102 -167l101 167h149l-172 -269z" />
    <glyph glyph-name="y" unicode="y" horiz-adv-x="580" 
d="M252 -185h-143l102 236l-203 504h152l126 -356l134 356h151z" />
    <glyph glyph-name="z" unicode="z" horiz-adv-x="460" 
d="M442 0h-422v122l246 311h-218v122h377v-122l-246 -311h263v-122z" />
    <glyph glyph-name="braceleft" unicode="{" horiz-adv-x="340" 
d="M317 -191h-85q-52 0 -95 39t-43 96v221q0 29 -25.5 48t-71.5 20v99q47 1 72 17t25 42v221q0 60 45.5 97.5t89.5 37.5h88v-90h-47q-39 0 -39 -62v-217q0 -41 -31.5 -66t-93.5 -28v-3q67 -3 96 -28t29 -75v-217q0 -62 39 -62h47v-90z" />
    <glyph glyph-name="bar" unicode="|" horiz-adv-x="600" 
d="M366 -250h-133v1000h133v-1000z" />
    <glyph glyph-name="braceright" unicode="}" horiz-adv-x="340" 
d="M108 -191h-85v90h47q39 0 39 62v217q0 50 29 75t96 28v3q-62 3 -93.5 28t-31.5 66v217q0 62 -39 62h-47v90h88q44 0 89.5 -37.5t45.5 -97.5v-221q0 -26 25 -42t72 -17v-99q-46 -1 -71.5 -20t-25.5 -48v-221q0 -57 -43 -96t-95 -39z" />
    <glyph glyph-name="asciitilde" unicode="~" horiz-adv-x="600" 
d="M497 347l36 -98q-36 -50 -64 -69t-63 -19q-38 0 -104.5 34t-112.5 34q-50 0 -86 -69l-36 96q50 89 127 89q38 0 114 -34t99 -34q41 0 90 70z" />
    <glyph glyph-name="uni00A0" unicode="&#xa0;" horiz-adv-x="280" 
 />
    <glyph glyph-name="exclamdown" unicode="&#xa1;" horiz-adv-x="280" 
d="M207 428h-133v127h133v-127zM207 -185h-133v551h133v-551z" />
    <glyph glyph-name="cent" unicode="&#xa2;" 
d="M349 39h-126v109q-80 18 -130 86t-50 149q0 80 51.5 147t128.5 83v102h126v-102q73 -21 114.5 -68t53.5 -102h-140q-14 21 -39.5 33.5t-53.5 12.5q-46 0 -77 -32t-31 -78t32 -77.5t78 -31.5q45 0 85 40h146q-26 -67 -65 -104.5t-103 -57.5v-109z" />
    <glyph glyph-name="sterling" unicode="&#xa3;" 
d="M326 0h-288v126h139q19 36 19 72q0 30 -12 55t-45 58h-141v126h56q-16 39 -16 80q0 97 72 167.5t168 70.5q97 0 165 -69t70 -143h-135q-9 39 -36 62.5t-63 23.5q-47 0 -77.5 -34t-30.5 -85q0 -42 28 -73h208v-126h-109q20 -39 25.5 -62t5.5 -57q0 -37 -11 -66h9
q45 0 73.5 28t28.5 71q0 23 -10 50h133q10 -20 10 -49q0 -93 -64.5 -159.5t-171.5 -66.5z" />
    <glyph glyph-name="currency" unicode="&#xa4;" horiz-adv-x="602" 
d="M526 55l-81 81q-64 -46 -144 -46q-76 0 -144 46l-81 -80l-66 65l83 83q-43 61 -43 137q0 77 45 141l-85 84l66 67l86 -85q63 43 139 43q78 0 138 -42l85 83l65 -66l-83 -83q46 -61 46 -142q0 -76 -43 -137l83 -82zM301 213q52 0 89.5 38.5t37.5 90.5q0 53 -37.5 90.5
t-90.5 37.5q-51 0 -88.5 -38t-37.5 -91q0 -52 37.5 -90t89.5 -38z" />
    <glyph glyph-name="yen" unicode="&#xa5;" 
d="M347 0h-133v189h-166v105h166v33l-32 57h-142v105h88l-138 251h137l154 -288l155 288h134l-138 -251h88v-105h-142l-31 -57v-33h164v-105h-164v-189z" />
    <glyph glyph-name="brokenbar" unicode="&#xa6;" horiz-adv-x="600" 
d="M366 325h-133v350h133v-350zM366 -175h-133v350h133v-350z" />
    <glyph glyph-name="section" unicode="&#xa7;" 
d="M58 54h125q0 -42 27 -66t74 -24q38 0 63.5 18t25.5 47q0 13 -7.5 24.5t-19 21t-34.5 22.5t-44.5 23.5l-58.5 29.5l-68 36q-113 62 -113 161q0 47 21.5 81.5t67.5 65.5q-29 47 -29 94q0 76 56.5 121.5t144.5 45.5q91 0 143.5 -48.5t63.5 -139.5h-125q-12 66 -82 66
q-35 0 -55.5 -15t-20.5 -39q0 -9 3 -17t11.5 -16t17.5 -14.5t26 -15.5l32 -16.5l40.5 -20.5l46.5 -24l44 -23.5t36 -23.5t33.5 -31t18 -36.5t8.5 -49.5q0 -79 -82 -141q50 -50 50 -120q0 -85 -61.5 -136.5t-153.5 -51.5q-96 0 -158.5 57.5t-66.5 154.5zM350 340l-157 80
q-17 -12 -28.5 -31t-11.5 -34q0 -34 56 -62l156 -79q40 30 40 65q0 33 -55 61z" />
    <glyph glyph-name="dieresis" unicode="&#xa8;" horiz-adv-x="500" 
d="M212 629h-134v133h134v-133zM422 629h-133v133h133v-133z" />
    <glyph glyph-name="copyright" unicode="&#xa9;" horiz-adv-x="740" 
d="M371 -12q-157 0 -270 110.5t-113 271.5q0 160 112.5 271t270.5 111t269.5 -112t111.5 -270q0 -155 -110.5 -268.5t-270.5 -113.5zM370 74q122 0 207 87.5t85 208.5q0 123 -85.5 209.5t-207.5 86.5q-120 0 -205.5 -86.5t-85.5 -209.5q0 -122 85 -209t207 -87zM478 295h90
q-7 -66 -63 -109t-130 -43q-94 0 -154 63.5t-60 164.5q0 100 60 164t154 64q73 0 129.5 -43t63.5 -109h-90q-13 40 -37 58.5t-65 18.5q-57 0 -91 -42t-34 -111q0 -72 32.5 -112.5t92.5 -40.5q42 0 66 18t36 59z" />
    <glyph glyph-name="ordfeminine" unicode="&#xaa;" horiz-adv-x="360" 
d="M334 448h-88v25h-2q-24 -35 -76 -35q-65 0 -107 46.5t-42 113.5q0 65 43.5 111t105.5 46q53 0 76 -36h2v26h88v-297zM178 523q30 0 50 21.5t20 52.5t-20 52t-50 21t-49.5 -22t-19.5 -53q0 -30 20 -51t49 -21z" />
    <glyph glyph-name="guillemotleft" unicode="&#xab;" horiz-adv-x="460" 
d="M201 108l-140 131v101l140 129v-123l-68 -57l68 -58v-123zM400 108l-140 131v101l140 129v-123l-68 -57l68 -58v-123z" />
    <glyph glyph-name="logicalnot" unicode="&#xac;" horiz-adv-x="600" 
d="M552 108h-120v197h-384v120h504v-317z" />
    <glyph glyph-name="uni00AD" unicode="&#xad;" horiz-adv-x="420" 
d="M349 230h-278v118h278v-118z" />
    <glyph glyph-name="registered" unicode="&#xae;" horiz-adv-x="740" 
d="M550 148h-88q-12 20 -12 63q-2 75 -23 94q-20 18 -63 18h-70v-175h-87v437h191q69 0 108 -31t39 -88q0 -87 -81 -106v-2q40 -12 56.5 -37.5t16.5 -81.5q0 -63 13 -91zM294 393h87q75 0 75 67q0 7 -2 14t-7.5 17t-20 16.5t-36.5 6.5h-96v-121zM371 -12q-157 0 -270 110.5
t-113 271.5q0 160 112.5 271t270.5 111t269.5 -112t111.5 -270q0 -155 -110.5 -268.5t-270.5 -113.5zM370 74q122 0 207 87.5t85 208.5q0 123 -85.5 209.5t-207.5 86.5q-120 0 -205.5 -86.5t-85.5 -209.5q0 -122 85 -209t207 -87z" />
    <glyph glyph-name="macron" unicode="&#xaf;" horiz-adv-x="420" 
d="M349 638h-277v111h277v-111z" />
    <glyph glyph-name="degree" unicode="&#xb0;" horiz-adv-x="400" 
d="M200 426q-60 0 -101.5 42t-41.5 101q0 60 41.5 101.5t101.5 41.5q61 0 102 -42.5t41 -100.5q0 -59 -41.5 -101t-101.5 -42zM200 495q29 0 50 22t21 52q0 29 -21.5 51.5t-49.5 22.5t-49.5 -22.5t-21.5 -51.5q0 -30 21 -52t50 -22z" />
    <glyph glyph-name="plusminus" unicode="&#xb1;" horiz-adv-x="600" 
d="M552 342h-192v-150h-120v150h-192v120h192v156h120v-156h192v-120zM552 0h-504v120h504v-120z" />
    <glyph glyph-name="twosuperior" unicode="&#xb2;" horiz-adv-x="336" 
d="M322 421h-304v81l159 147q49 45 49 80q0 26 -16.5 42.5t-42.5 16.5q-58 0 -58 -80h-95q-1 3 -1 16q0 65 46.5 107.5t107.5 42.5q63 0 109 -43t46 -104q0 -73 -87 -149l-80 -71h167v-86z" />
    <glyph glyph-name="threesuperior" unicode="&#xb3;" horiz-adv-x="336" 
d="M139 628h-6v86h11q31 0 43 9t12 30q0 35 -34 35q-28 0 -28 -36h-96q3 55 38 88.5t88 33.5q51 0 89.5 -36.5t38.5 -85.5q0 -48 -34 -76q32 -14 49.5 -44.5t17.5 -69.5q0 -63 -47.5 -106.5t-114.5 -43.5q-64 0 -109 41.5t-49 106.5h96q2 -28 20 -45t45 -17t45 18.5t18 45.5
q0 34 -21.5 50t-71.5 16z" />
    <glyph glyph-name="acute" unicode="&#xb4;" horiz-adv-x="420" 
d="M368 719l-226 -125l-53 92l222 135z" />
    <glyph glyph-name="mu" unicode="&#xb5;" horiz-adv-x="623" 
d="M567 0h-126v73h-3q-22 -40 -60 -63t-82 -23q-71 0 -107 39v-211h-133v740h133v-303q0 -138 121 -138q58 0 91 42t33 113v286h133v-555z" />
    <glyph glyph-name="paragraph" unicode="&#xb6;" horiz-adv-x="600" 
d="M528 -103h-113v740h-97v-740h-113v458q-101 1 -156.5 51t-55.5 138q0 196 249 196h365v-103h-79v-740z" />
    <glyph glyph-name="periodcentered" unicode="&#xb7;" horiz-adv-x="280" 
d="M206 187h-133v133h133v-133z" />
    <glyph glyph-name="cedilla" unicode="&#xb8;" horiz-adv-x="340" 
d="M154 -125l-49 19l49 112l50 -7l-24 -54q18 2 25 2q41 0 67 -28.5t26 -71.5q0 -44 -27.5 -71t-72.5 -27q-37 0 -68.5 26t-31.5 61h53q3 -17 16 -27t31 -10q21 0 33.5 13.5t12.5 34.5t-13.5 35.5t-33.5 14.5q-31 0 -43 -22z" />
    <glyph glyph-name="onesuperior" unicode="&#xb9;" horiz-adv-x="248" 
d="M176 421h-96v358h-55v86h151v-444z" />
    <glyph glyph-name="ordmasculine" unicode="&#xba;" horiz-adv-x="360" 
d="M181 438q-65 0 -111.5 47t-46.5 111q0 66 46 112.5t112 46.5t111.5 -46.5t45.5 -111.5q0 -67 -45 -113t-112 -46zM181 523q28 0 47.5 21t19.5 51t-20 52.5t-47 22.5q-29 0 -48.5 -22t-19.5 -52t19.5 -51.5t48.5 -21.5z" />
    <glyph glyph-name="guillemotright" unicode="&#xbb;" horiz-adv-x="460" 
d="M201 239l-140 -131v123l68 58l-68 57v123l140 -129v-101zM400 239l-140 -131v123l68 58l-68 57v123l140 -129v-101z" />
    <glyph glyph-name="onequarter" unicode="&#xbc;" horiz-adv-x="706" 
d="M176 296h-96v358h-55v86h151v-444zM208 0h-98l306 740h99zM620 0h-90v65h-198v70l212 309h76v-297h49v-82h-49v-65zM530 147v159h-2l-97 -159h99z" />
    <glyph glyph-name="onehalf" unicode="&#xbd;" horiz-adv-x="756" 
d="M176 296h-96v358h-55v86h151v-444zM208 0h-98l306 740h99zM724 0h-304v81l159 147q49 45 49 80q0 26 -16.5 42.5t-42.5 16.5q-58 0 -58 -80h-95q-1 3 -1 16q0 65 46.5 107.5t107.5 42.5q63 0 109 -43t46 -104q0 -73 -87 -149l-80 -71h167v-86z" />
    <glyph glyph-name="threequarters" unicode="&#xbe;" horiz-adv-x="840" 
d="M149 503h-6v86h6q34 0 47 8.5t13 30.5q0 35 -34 35q-28 0 -28 -36h-96q4 56 39 89t87 33t90 -36.5t38 -85.5q0 -48 -34 -76q32 -14 49.5 -44.5t17.5 -69.5q0 -64 -47.5 -107t-114.5 -43q-64 0 -109 41.5t-49 106.5h96q2 -28 20 -45t45 -17t45 18.5t18 45.5q0 34 -21.5 50
t-71.5 16zM342 0h-98l306 740h99zM754 0h-90v65h-198v70l212 309h76v-297h49v-82h-49v-65zM664 147v159h-2l-97 -159h99z" />
    <glyph glyph-name="questiondown" unicode="&#xbf;" 
d="M366 422h-133v133h133v-133zM388 31h133q-5 -61 -28 -108t-57 -72.5t-70.5 -38t-74.5 -12.5q-97 0 -160 65t-63 163q0 45 20.5 85.5t75.5 91.5q46 43 57.5 66.5t11.5 75.5v21h133v-19q0 -74 -21 -122.5t-80 -98.5q-38 -33 -51 -53.5t-13 -47.5q0 -43 25 -68.5t69 -25.5
q42 0 64 22.5t29 75.5z" />
    <glyph glyph-name="Agrave" unicode="&#xc0;" horiz-adv-x="740" 
d="M732 0h-151l-79 191h-265l-79 -191h-151l308 740h107zM453 320l-84 227h-2l-84 -227h170zM436 794l-226 125l57 102l222 -135z" />
    <glyph glyph-name="Aacute" unicode="&#xc1;" horiz-adv-x="740" 
d="M732 0h-151l-79 191h-265l-79 -191h-151l308 740h107zM453 320l-84 227h-2l-84 -227h170zM528 919l-226 -125l-53 92l222 135z" />
    <glyph glyph-name="Acircumflex" unicode="&#xc2;" horiz-adv-x="740" 
d="M732 0h-151l-79 191h-265l-79 -191h-151l308 740h107zM453 320l-84 227h-2l-84 -227h170zM571 806h-145l-53 64l-57 -64h-144l148 138h105z" />
    <glyph glyph-name="Atilde" unicode="&#xc3;" horiz-adv-x="740" 
d="M732 0h-151l-79 191h-265l-79 -191h-151l308 740h107zM453 320l-84 227h-2l-84 -227h170zM513 931l54 -78q-55 -47 -114 -47q-23 0 -73 13.5t-72 13.5q-37 0 -80 -20l-54 81q57 43 116 43q23 0 74 -14.5t73 -14.5q41 0 76 23z" />
    <glyph glyph-name="Adieresis" unicode="&#xc4;" horiz-adv-x="740" 
d="M732 0h-151l-79 191h-265l-79 -191h-151l308 740h107zM453 320l-84 227h-2l-84 -227h170zM332 806h-134v133h134v-133zM542 806h-133v133h133v-133z" />
    <glyph glyph-name="Aring" unicode="&#xc5;" horiz-adv-x="740" 
d="M732 0h-151l-79 191h-265l-79 -191h-151l308 740h107zM453 320l-84 227h-2l-84 -227h170zM478 861q0 -44 -32 -75.5t-76 -31.5t-75.5 32t-31.5 75q0 44 31 76t76 32t76.5 -31.5t31.5 -76.5zM411 861q0 17 -12 29t-29 12t-28.5 -12t-11.5 -29t12 -28.5t28 -11.5
q17 0 29 11.5t12 28.5z" />
    <glyph glyph-name="AE" unicode="&#xc6;" horiz-adv-x="900" 
d="M824 0h-357v191h-196l-115 -191h-161l489 740h340v-128h-220v-181h209v-128h-209v-175h220v-128zM467 319v195h-2l-113 -195h115z" />
    <glyph glyph-name="Ccedilla" unicode="&#xc7;" horiz-adv-x="780" 
d="M364 -125l-49 19l42 96q-138 24 -230.5 133.5t-92.5 249.5q0 155 113 268.5t270 113.5q112 0 208 -61t141 -165h-156q-85 98 -198 98q-99 0 -170 -78t-71 -178q0 -101 73 -179.5t173 -78.5q103 0 186 93h159q-44 -99 -138.5 -160t-207.5 -61h-8l-18 -40q18 2 25 2
q41 0 67 -28.5t26 -71.5q0 -44 -27.5 -71t-71.5 -27q-37 0 -69 26t-32 61h53q3 -17 16 -27t31 -10q21 0 33.5 13.5t12.5 34.5t-13.5 35.5t-33.5 14.5q-31 0 -43 -22z" />
    <glyph glyph-name="Egrave" unicode="&#xc8;" horiz-adv-x="520" 
d="M459 0h-398v740h398v-128h-261v-181h250v-128h-250v-175h261v-128zM326 794l-226 125l57 102l222 -135z" />
    <glyph glyph-name="Eacute" unicode="&#xc9;" horiz-adv-x="520" 
d="M459 0h-398v740h398v-128h-261v-181h250v-128h-250v-175h261v-128zM418 919l-226 -125l-53 92l222 135z" />
    <glyph glyph-name="Ecircumflex" unicode="&#xca;" horiz-adv-x="520" 
d="M459 0h-398v740h398v-128h-261v-181h250v-128h-250v-175h261v-128zM461 806h-145l-53 64l-57 -64h-144l148 138h105z" />
    <glyph glyph-name="Edieresis" unicode="&#xcb;" horiz-adv-x="520" 
d="M459 0h-398v740h398v-128h-261v-181h250v-128h-250v-175h261v-128zM222 806h-134v133h134v-133zM432 806h-133v133h133v-133z" />
    <glyph glyph-name="Igrave" unicode="&#xcc;" horiz-adv-x="280" 
d="M209 0h-137v740h137v-740zM181 794l-226 125l57 102l222 -135z" />
    <glyph glyph-name="Iacute" unicode="&#xcd;" horiz-adv-x="280" 
d="M209 0h-137v740h137v-740zM323 919l-226 -125l-53 92l222 135z" />
    <glyph glyph-name="Icircumflex" unicode="&#xce;" horiz-adv-x="280" 
d="M209 0h-137v740h137v-740zM341 806h-145l-53 64l-57 -64h-144l148 138h105z" />
    <glyph glyph-name="Idieresis" unicode="&#xcf;" horiz-adv-x="280" 
d="M209 0h-137v740h137v-740zM102 806h-134v133h134v-133zM312 806h-133v133h133v-133z" />
    <glyph glyph-name="Eth" unicode="&#xd0;" horiz-adv-x="734" 
d="M275 0h-178v311h-72v128h72v301h177q223 0 320 -110q39 -44 62.5 -100t29 -90t5.5 -63q0 -160 -96 -264q-55 -59 -129 -86t-191 -27zM234 128h44q145 0 213 73q63 67 63 167q0 97 -65 168q-70 76 -215 76h-40v-173h137v-128h-137v-183z" />
    <glyph glyph-name="Ntilde" unicode="&#xd1;" horiz-adv-x="740" 
d="M671 0h-153l-309 538h-2v-538h-137v740h156l306 -538h2v538h137v-740zM513 931l54 -78q-55 -47 -114 -47q-23 0 -73 13.5t-72 13.5q-37 0 -80 -20l-54 81q57 43 116 43q23 0 74 -14.5t73 -14.5q41 0 76 23z" />
    <glyph glyph-name="Ograve" unicode="&#xd2;" horiz-adv-x="840" 
d="M807 368q0 -158 -113 -270.5t-274 -112.5q-156 0 -271.5 110.5t-115.5 272.5q0 157 111 272t276 115q161 0 274 -113.5t113 -273.5zM420 113q106 0 178 76t72 180q0 105 -72.5 181.5t-178.5 76.5q-102 0 -175.5 -76.5t-73.5 -181.5q0 -104 72.5 -180t177.5 -76zM486 794
l-226 125l57 102l222 -135z" />
    <glyph glyph-name="Oacute" unicode="&#xd3;" horiz-adv-x="840" 
d="M807 368q0 -158 -113 -270.5t-274 -112.5q-156 0 -271.5 110.5t-115.5 272.5q0 157 111 272t276 115q161 0 274 -113.5t113 -273.5zM420 113q106 0 178 76t72 180q0 105 -72.5 181.5t-178.5 76.5q-102 0 -175.5 -76.5t-73.5 -181.5q0 -104 72.5 -180t177.5 -76zM578 919
l-226 -125l-53 92l222 135z" />
    <glyph glyph-name="Ocircumflex" unicode="&#xd4;" horiz-adv-x="840" 
d="M807 368q0 -158 -113 -270.5t-274 -112.5q-156 0 -271.5 110.5t-115.5 272.5q0 157 111 272t276 115q161 0 274 -113.5t113 -273.5zM420 113q106 0 178 76t72 180q0 105 -72.5 181.5t-178.5 76.5q-102 0 -175.5 -76.5t-73.5 -181.5q0 -104 72.5 -180t177.5 -76zM620 806
h-145l-53 64l-57 -64h-144l148 138h105z" />
    <glyph glyph-name="Otilde" unicode="&#xd5;" horiz-adv-x="840" 
d="M807 368q0 -158 -113 -270.5t-274 -112.5q-156 0 -271.5 110.5t-115.5 272.5q0 157 111 272t276 115q161 0 274 -113.5t113 -273.5zM420 113q106 0 178 76t72 180q0 105 -72.5 181.5t-178.5 76.5q-102 0 -175.5 -76.5t-73.5 -181.5q0 -104 72.5 -180t177.5 -76zM563 931
l54 -78q-55 -47 -114 -47q-23 0 -73 13.5t-72 13.5q-37 0 -80 -20l-54 81q57 43 116 43q23 0 74 -14.5t73 -14.5q41 0 76 23z" />
    <glyph glyph-name="Odieresis" unicode="&#xd6;" horiz-adv-x="840" 
d="M807 368q0 -158 -113 -270.5t-274 -112.5q-156 0 -271.5 110.5t-115.5 272.5q0 157 111 272t276 115q161 0 274 -113.5t113 -273.5zM420 113q106 0 178 76t72 180q0 105 -72.5 181.5t-178.5 76.5q-102 0 -175.5 -76.5t-73.5 -181.5q0 -104 72.5 -180t177.5 -76zM382 806
h-134v133h134v-133zM592 806h-133v133h133v-133z" />
    <glyph glyph-name="multiply" unicode="&#xd7;" horiz-adv-x="600" 
d="M459 12l-159 160l-159 -160l-82 82l159 159l-159 159l82 82l159 -159l159 159l82 -82l-160 -159l160 -159z" />
    <glyph glyph-name="Oslash" unicode="&#xd8;" horiz-adv-x="840" 
d="M203 -71l-110 75l60 88q-120 114 -120 276q0 163 114.5 275t272.5 112q84 0 162 -35l63 94l109 -75l-64 -94q117 -111 117 -277q0 -163 -115.5 -273t-271.5 -110q-86 0 -155 33zM230 205l277 406q-41 16 -88 16q-103 0 -176 -75.5t-73 -182.5q0 -92 60 -164zM614 532
l-276 -405q42 -14 82 -14q104 0 177 76t73 180q0 90 -56 163z" />
    <glyph glyph-name="Ugrave" unicode="&#xd9;" horiz-adv-x="640" 
d="M448 266v474h137v-488q0 -71 -25 -125t-65.5 -83.5t-84.5 -44t-89 -14.5q-35 0 -70 8t-71 28.5t-63 50t-44.5 77t-17.5 105.5v486h137v-474q0 -153 128 -153t128 153zM351 794l-226 125l57 102l222 -135z" />
    <glyph glyph-name="Uacute" unicode="&#xda;" horiz-adv-x="640" 
d="M448 266v474h137v-488q0 -71 -25 -125t-65.5 -83.5t-84.5 -44t-89 -14.5q-35 0 -70 8t-71 28.5t-63 50t-44.5 77t-17.5 105.5v486h137v-474q0 -153 128 -153t128 153zM513 919l-226 -125l-53 92l222 135z" />
    <glyph glyph-name="Ucircumflex" unicode="&#xdb;" horiz-adv-x="640" 
d="M448 266v474h137v-488q0 -71 -25 -125t-65.5 -83.5t-84.5 -44t-89 -14.5q-35 0 -70 8t-71 28.5t-63 50t-44.5 77t-17.5 105.5v486h137v-474q0 -153 128 -153t128 153zM520 806h-145l-53 64l-57 -64h-144l148 138h105z" />
    <glyph glyph-name="Udieresis" unicode="&#xdc;" horiz-adv-x="640" 
d="M448 266v474h137v-488q0 -71 -25 -125t-65.5 -83.5t-84.5 -44t-89 -14.5q-35 0 -70 8t-71 28.5t-63 50t-44.5 77t-17.5 105.5v486h137v-474q0 -153 128 -153t128 153zM282 806h-134v133h134v-133zM492 806h-133v133h133v-133z" />
    <glyph glyph-name="Yacute" unicode="&#xdd;" horiz-adv-x="620" 
d="M378 0h-137v273l-243 467h150l161 -340l162 340h151l-244 -467v-273zM503 919l-226 -125l-53 92l222 135z" />
    <glyph glyph-name="Thorn" unicode="&#xde;" 
d="M209 0h-137v740h137v-140h88q120 0 184 -63.5t64 -165.5q0 -104 -64.5 -166.5t-182.5 -62.5h-89v-142zM209 270h48q87 0 119 27t32 74q0 49 -32 75t-118 26h-49v-202z" />
    <glyph glyph-name="germandbls" unicode="&#xdf;" horiz-adv-x="600" 
d="M173 0h-122v493q0 125 64.5 193.5t162.5 68.5q89 0 151 -61.5t62 -148.5q0 -97 -66 -136q78 -20 119 -70.5t41 -124.5q0 -105 -60.5 -168.5t-163.5 -63.5q-134 0 -186 91h-2v-73zM184 189h86q6 -37 32.5 -61t59.5 -24q39 0 64.5 28t25.5 68q0 60 -44 88t-143 28h-7v118
q46 0 73 28.5t27 76.5q0 42 -23.5 68t-62.5 26q-43 0 -65.5 -32.5t-22.5 -93.5v-318z" />
    <glyph glyph-name="agrave" unicode="&#xe0;" horiz-adv-x="660" 
d="M613 0h-122v69q-33 -39 -88 -63t-107 -24q-116 0 -192.5 86t-76.5 213q0 122 79.5 207.5t198.5 85.5q56 0 108.5 -27t75.5 -62h2v70h122v-555zM325 104q71 0 116.5 51t45.5 124q0 74 -46 123.5t-117 49.5q-70 0 -117 -51.5t-47 -125.5q0 -71 47.5 -121t117.5 -50z
M396 624l-226 125l57 102l222 -135z" />
    <glyph glyph-name="aacute" unicode="&#xe1;" horiz-adv-x="660" 
d="M613 0h-122v69q-33 -39 -88 -63t-107 -24q-116 0 -192.5 86t-76.5 213q0 122 79.5 207.5t198.5 85.5q56 0 108.5 -27t75.5 -62h2v70h122v-555zM325 104q71 0 116.5 51t45.5 124q0 74 -46 123.5t-117 49.5q-70 0 -117 -51.5t-47 -125.5q0 -71 47.5 -121t117.5 -50z
M488 749l-226 -125l-53 92l222 135z" />
    <glyph glyph-name="acircumflex" unicode="&#xe2;" horiz-adv-x="660" 
d="M613 0h-122v69q-33 -39 -88 -63t-107 -24q-116 0 -192.5 86t-76.5 213q0 122 79.5 207.5t198.5 85.5q56 0 108.5 -27t75.5 -62h2v70h122v-555zM325 104q71 0 116.5 51t45.5 124q0 74 -46 123.5t-117 49.5q-70 0 -117 -51.5t-47 -125.5q0 -71 47.5 -121t117.5 -50z
M531 636h-145l-53 64l-57 -64h-144l148 138h105z" />
    <glyph glyph-name="atilde" unicode="&#xe3;" horiz-adv-x="660" 
d="M613 0h-122v69q-33 -39 -88 -63t-107 -24q-116 0 -192.5 86t-76.5 213q0 122 79.5 207.5t198.5 85.5q56 0 108.5 -27t75.5 -62h2v70h122v-555zM325 104q71 0 116.5 51t45.5 124q0 74 -46 123.5t-117 49.5q-70 0 -117 -51.5t-47 -125.5q0 -71 47.5 -121t117.5 -50z
M473 761l54 -78q-55 -47 -114 -47q-23 0 -73 13.5t-72 13.5q-37 0 -80 -20l-54 81q57 43 116 43q23 0 74 -14.5t73 -14.5q41 0 76 23z" />
    <glyph glyph-name="adieresis" unicode="&#xe4;" horiz-adv-x="660" 
d="M613 0h-122v69q-33 -39 -88 -63t-107 -24q-116 0 -192.5 86t-76.5 213q0 122 79.5 207.5t198.5 85.5q56 0 108.5 -27t75.5 -62h2v70h122v-555zM325 104q71 0 116.5 51t45.5 124q0 74 -46 123.5t-117 49.5q-70 0 -117 -51.5t-47 -125.5q0 -71 47.5 -121t117.5 -50z
M292 636h-134v133h134v-133zM502 636h-133v133h133v-133z" />
    <glyph glyph-name="aring" unicode="&#xe5;" horiz-adv-x="660" 
d="M613 0h-122v69q-33 -39 -88 -63t-107 -24q-116 0 -192.5 86t-76.5 213q0 122 79.5 207.5t198.5 85.5q56 0 108.5 -27t75.5 -62h2v70h122v-555zM325 104q71 0 116.5 51t45.5 124q0 74 -46 123.5t-117 49.5q-70 0 -117 -51.5t-47 -125.5q0 -71 47.5 -121t117.5 -50z
M438 726q0 -44 -32 -75.5t-76 -31.5t-75.5 32t-31.5 75q0 44 31 76t76 32t76.5 -31.5t31.5 -76.5zM371 726q0 17 -12 29t-29 12t-28.5 -12t-11.5 -29t12 -28.5t28 -11.5q17 0 29 11.5t12 28.5z" />
    <glyph glyph-name="ae" unicode="&#xe6;" horiz-adv-x="1080" 
d="M1044 218h-432q12 -49 55 -81.5t94 -32.5q45 0 81 18.5t51 52.5h140q-29 -81 -103.5 -137t-158.5 -56q-105 0 -162 74h-2v-56h-122v56h-2q-54 -74 -170 -74q-117 0 -200.5 88.5t-83.5 206.5q0 120 84 208.5t202 88.5q55 0 93 -15t77 -54v50h122v-50q64 69 169 69
q108 0 190 -88.5t82 -205.5q0 -42 -4 -62zM321 104q68 0 114 52t46 122t-45.5 122t-114.5 52q-68 0 -113.5 -52t-45.5 -124q0 -68 46 -120t113 -52zM608 325h307q-9 58 -52 92.5t-102 34.5q-54 0 -96.5 -34.5t-56.5 -92.5z" />
    <glyph glyph-name="ccedilla" unicode="&#xe7;" horiz-adv-x="640" 
d="M286 -125l-49 19l41 94q-108 22 -174.5 103.5t-66.5 188.5q0 121 86 207.5t208 86.5q95 0 171 -54t108 -149h-150q-45 81 -129 81q-70 0 -115.5 -49.5t-45.5 -124.5q0 -74 48 -124t119 -50q75 0 123 77h150q-36 -96 -109 -147.5t-172 -51.5l-17 -37q18 2 25 2
q41 0 67 -28.5t26 -71.5q0 -44 -27.5 -71t-71.5 -27q-40 0 -70 25.5t-31 61.5h53q3 -17 16 -27t31 -10q21 0 33.5 13.5t12.5 34.5t-13.5 35.5t-33.5 14.5q-31 0 -43 -22z" />
    <glyph glyph-name="egrave" unicode="&#xe8;" horiz-adv-x="640" 
d="M602 218h-431q8 -41 52 -77.5t101 -36.5q89 0 128 71h140q-27 -84 -103 -138.5t-165 -54.5q-125 0 -209 85t-84 209t83.5 211t208.5 87q121 0 204 -83.5t83 -205.5q0 -29 -8 -67zM167 325h307q-10 60 -49.5 93.5t-101.5 33.5q-57 0 -99 -32.5t-57 -94.5zM386 624
l-226 125l57 102l222 -135z" />
    <glyph glyph-name="eacute" unicode="&#xe9;" horiz-adv-x="640" 
d="M602 218h-431q8 -41 52 -77.5t101 -36.5q89 0 128 71h140q-27 -84 -103 -138.5t-165 -54.5q-125 0 -209 85t-84 209t83.5 211t208.5 87q121 0 204 -83.5t83 -205.5q0 -29 -8 -67zM167 325h307q-10 60 -49.5 93.5t-101.5 33.5q-57 0 -99 -32.5t-57 -94.5zM478 749
l-226 -125l-53 92l222 135z" />
    <glyph glyph-name="ecircumflex" unicode="&#xea;" horiz-adv-x="640" 
d="M602 218h-431q8 -41 52 -77.5t101 -36.5q89 0 128 71h140q-27 -84 -103 -138.5t-165 -54.5q-125 0 -209 85t-84 209t83.5 211t208.5 87q121 0 204 -83.5t83 -205.5q0 -29 -8 -67zM167 325h307q-10 60 -49.5 93.5t-101.5 33.5q-57 0 -99 -32.5t-57 -94.5zM520 636h-145
l-53 64l-57 -64h-144l148 138h105z" />
    <glyph glyph-name="edieresis" unicode="&#xeb;" horiz-adv-x="640" 
d="M602 218h-431q8 -41 52 -77.5t101 -36.5q89 0 128 71h140q-27 -84 -103 -138.5t-165 -54.5q-125 0 -209 85t-84 209t83.5 211t208.5 87q121 0 204 -83.5t83 -205.5q0 -29 -8 -67zM167 325h307q-10 60 -49.5 93.5t-101.5 33.5q-57 0 -99 -32.5t-57 -94.5zM282 636h-134
v133h134v-133zM492 636h-133v133h133v-133z" />
    <glyph glyph-name="igrave" unicode="&#xec;" horiz-adv-x="240" 
d="M186 0h-133v555h133v-555zM161 624l-226 125l57 102l222 -135z" />
    <glyph glyph-name="iacute" unicode="&#xed;" horiz-adv-x="240" 
d="M186 0h-133v555h133v-555zM303 749l-226 -125l-53 92l222 135z" />
    <glyph glyph-name="icircumflex" unicode="&#xee;" horiz-adv-x="240" 
d="M186 0h-133v555h133v-555zM321 636h-145l-53 64l-57 -64h-144l148 138h105z" />
    <glyph glyph-name="idieresis" unicode="&#xef;" horiz-adv-x="240" 
d="M186 0h-133v555h133v-555zM82 636h-134v133h134v-133zM292 636h-133v133h133v-133z" />
    <glyph glyph-name="eth" unicode="&#xf0;" horiz-adv-x="640" 
d="M570 694l-132 -39q178 -151 178 -360q0 -133 -82 -223t-211 -90q-121 0 -208.5 87.5t-87.5 207.5q0 123 86.5 209.5t205.5 86.5q34 0 56 -11l2 2q-31 31 -66 53l-151 -45l-86 56l144 44q-57 26 -106 41l150 41q38 -11 91 -40l131 40zM323 104q69 0 115 51.5t46 120.5
q0 68 -46.5 122t-114.5 54q-66 0 -114.5 -51.5t-48.5 -123.5t46 -122.5t117 -50.5z" />
    <glyph glyph-name="ntilde" unicode="&#xf1;" horiz-adv-x="600" 
d="M547 0h-133v279q0 173 -112 173q-42 0 -78.5 -34t-36.5 -115v-303h-133v555h123v-48q69 67 153 67q24 0 50.5 -6t57 -23t54 -43t39.5 -71.5t16 -102.5v-328zM443 761l54 -78q-55 -47 -114 -47q-23 0 -73 13.5t-72 13.5q-37 0 -80 -20l-54 81q57 43 116 43q23 0 74 -14.5
t73 -14.5q41 0 76 23z" />
    <glyph glyph-name="ograve" unicode="&#xf2;" horiz-adv-x="640" 
d="M321 -18q-122 0 -209 87.5t-87 207.5q0 121 86 209t210 88q125 0 209.5 -87t84.5 -208q0 -126 -83.5 -211.5t-210.5 -85.5zM321 104q69 0 115 51t46 121t-46.5 123t-115.5 53q-66 0 -114 -52.5t-48 -122.5q0 -71 46.5 -122t116.5 -51zM386 624l-226 125l57 102l222 -135z
" />
    <glyph glyph-name="oacute" unicode="&#xf3;" horiz-adv-x="640" 
d="M321 -18q-122 0 -209 87.5t-87 207.5q0 121 86 209t210 88q125 0 209.5 -87t84.5 -208q0 -126 -83.5 -211.5t-210.5 -85.5zM321 104q69 0 115 51t46 121t-46.5 123t-115.5 53q-66 0 -114 -52.5t-48 -122.5q0 -71 46.5 -122t116.5 -51zM478 749l-226 -125l-53 92l222 135z
" />
    <glyph glyph-name="ocircumflex" unicode="&#xf4;" horiz-adv-x="640" 
d="M321 -18q-122 0 -209 87.5t-87 207.5q0 121 86 209t210 88q125 0 209.5 -87t84.5 -208q0 -126 -83.5 -211.5t-210.5 -85.5zM321 104q69 0 115 51t46 121t-46.5 123t-115.5 53q-66 0 -114 -52.5t-48 -122.5q0 -71 46.5 -122t116.5 -51zM520 636h-145l-53 64l-57 -64h-144
l148 138h105z" />
    <glyph glyph-name="otilde" unicode="&#xf5;" horiz-adv-x="640" 
d="M321 -18q-122 0 -209 87.5t-87 207.5q0 121 86 209t210 88q125 0 209.5 -87t84.5 -208q0 -126 -83.5 -211.5t-210.5 -85.5zM321 104q69 0 115 51t46 121t-46.5 123t-115.5 53q-66 0 -114 -52.5t-48 -122.5q0 -71 46.5 -122t116.5 -51zM463 761l54 -78q-55 -47 -114 -47
q-23 0 -73 13.5t-72 13.5q-37 0 -80 -20l-54 81q57 43 116 43q23 0 74 -14.5t73 -14.5q41 0 76 23z" />
    <glyph glyph-name="odieresis" unicode="&#xf6;" horiz-adv-x="640" 
d="M321 -18q-122 0 -209 87.5t-87 207.5q0 121 86 209t210 88q125 0 209.5 -87t84.5 -208q0 -126 -83.5 -211.5t-210.5 -85.5zM321 104q69 0 115 51t46 121t-46.5 123t-115.5 53q-66 0 -114 -52.5t-48 -122.5q0 -71 46.5 -122t116.5 -51zM282 636h-134v133h134v-133z
M492 636h-133v133h133v-133z" />
    <glyph glyph-name="divide" unicode="&#xf7;" horiz-adv-x="600" 
d="M360 406h-120v120h120v-120zM552 193h-504v120h504v-120zM360 -20h-120v120h120v-120z" />
    <glyph glyph-name="oslash" unicode="&#xf8;" horiz-adv-x="660" 
d="M182 -50l-99 68l37 54q-85 85 -85 205q0 122 87.5 209.5t208.5 87.5q57 0 116 -24l39 58l99 -69l-40 -58q80 -86 80 -202q0 -126 -84.5 -211.5t-209.5 -85.5q-50 0 -111 22zM195 181l180 264q-21 7 -45 7q-65 0 -113.5 -52.5t-48.5 -122.5q0 -52 27 -96zM467 367
l-176 -258q19 -5 40 -5q68 0 114.5 51t46.5 121q0 47 -25 91z" />
    <glyph glyph-name="ugrave" unicode="&#xf9;" horiz-adv-x="600" 
d="M544 0h-122v56h-2q-54 -74 -135 -74q-107 0 -171 60.5t-64 186.5v326h133v-287q0 -164 116 -164q56 0 84 43.5t28 119.5v288h133v-555zM331 624l-226 125l57 102l222 -135z" />
    <glyph glyph-name="uacute" unicode="&#xfa;" horiz-adv-x="600" 
d="M544 0h-122v56h-2q-54 -74 -135 -74q-107 0 -171 60.5t-64 186.5v326h133v-287q0 -164 116 -164q56 0 84 43.5t28 119.5v288h133v-555zM493 749l-226 -125l-53 92l222 135z" />
    <glyph glyph-name="ucircumflex" unicode="&#xfb;" horiz-adv-x="600" 
d="M544 0h-122v56h-2q-54 -74 -135 -74q-107 0 -171 60.5t-64 186.5v326h133v-287q0 -164 116 -164q56 0 84 43.5t28 119.5v288h133v-555zM500 636h-145l-53 64l-57 -64h-144l148 138h105z" />
    <glyph glyph-name="udieresis" unicode="&#xfc;" horiz-adv-x="600" 
d="M544 0h-122v56h-2q-54 -74 -135 -74q-107 0 -171 60.5t-64 186.5v326h133v-287q0 -164 116 -164q56 0 84 43.5t28 119.5v288h133v-555zM262 636h-134v133h134v-133zM472 636h-133v133h133v-133z" />
    <glyph glyph-name="yacute" unicode="&#xfd;" horiz-adv-x="580" 
d="M252 -185h-143l102 236l-203 504h152l126 -356l134 356h151zM483 749l-226 -125l-53 92l222 135z" />
    <glyph glyph-name="thorn" unicode="&#xfe;" horiz-adv-x="660" 
d="M180 -185h-133v925h133v-247h2q65 81 169 81q120 0 199 -87t79 -207q0 -123 -80.5 -210.5t-197.5 -87.5q-53 0 -92 16t-79 55v-238zM334 104q67 0 114.5 52t47.5 122t-46 122t-115 52t-116 -51t-47 -123q0 -81 51 -127.5t111 -46.5z" />
    <glyph glyph-name="ydieresis" unicode="&#xff;" horiz-adv-x="580" 
d="M252 -185h-143l102 236l-203 504h152l126 -356l134 356h151zM252 636h-134v133h134v-133zM462 636h-133v133h133v-133z" />
    <glyph glyph-name="dotlessi" unicode="&#x131;" horiz-adv-x="240" 
d="M186 0h-133v555h133v-555z" />
    <glyph glyph-name="Lslash" unicode="&#x141;" horiz-adv-x="480" 
d="M460 0h-363v273l-71 -48v138l71 48v329h137v-237l128 86v-138l-128 -86v-237h226v-128z" />
    <glyph glyph-name="lslash" unicode="&#x142;" horiz-adv-x="320" 
d="M232 0h-133v258l-65 -42v142l65 43v339h133v-252l73 48v-143l-73 -49v-344z" />
    <glyph glyph-name="OE" unicode="&#x152;" horiz-adv-x="1060" 
d="M1007 0h-357v79q-40 -43 -107.5 -68.5t-134.5 -25.5q-153 0 -262 111.5t-109 274.5q0 160 108.5 272t268.5 112q66 0 131 -25.5t105 -69.5v80h357v-128h-220v-181h208v-128h-208v-175h220v-128zM416 113q99 0 169 75t70 177q0 104 -70 183t-173 79t-170.5 -79t-67.5 -192
q0 -94 70 -168.5t172 -74.5z" />
    <glyph glyph-name="oe" unicode="&#x153;" horiz-adv-x="1080" 
d="M1044 218h-434q15 -51 57.5 -82.5t94.5 -31.5q44 0 79.5 19t51.5 52h138q-29 -85 -104 -139t-165 -54q-66 0 -124.5 30.5t-94.5 85.5q-77 -116 -223 -116q-120 0 -205 86t-85 203q0 127 84.5 215t208.5 88q136 0 220 -114q83 114 218 114q120 0 204.5 -84.5t84.5 -201.5
q0 -36 -6 -70zM325 104q69 0 115 52t46 121q0 70 -47.5 122.5t-115.5 52.5q-64 0 -112 -51t-48 -119q0 -73 46.5 -125.5t115.5 -52.5zM608 325h307q-15 59 -56.5 93t-97.5 34q-55 0 -95 -32.5t-58 -94.5z" />
    <glyph glyph-name="Scaron" unicode="&#x160;" horiz-adv-x="520" 
d="M475 544h-140v1q-3 38 -24 60t-59 22q-33 0 -54.5 -21t-21.5 -54q0 -67 95 -94q117 -35 169.5 -90.5t52.5 -146.5q0 -107 -68.5 -171.5t-171.5 -64.5q-98 0 -166.5 63.5t-74.5 163.5h144q5 -46 31 -72.5t67 -26.5q42 0 72 27t30 67q0 73 -95 107q-105 38 -142 63
q-80 55 -80 167q0 92 63.5 151.5t153.5 59.5q87 0 150.5 -59.5t68.5 -151.5zM460 944l-146 -138h-105l-149 138h145l57 -64l53 64h145z" />
    <glyph glyph-name="scaron" unicode="&#x161;" horiz-adv-x="440" 
d="M406 404h-130q-12 48 -53 48q-21 0 -36 -13.5t-15 -34.5t16.5 -32.5t74.5 -28.5q91 -27 124.5 -67.5t33.5 -99.5q0 -83 -56 -138.5t-138 -55.5q-84 0 -143 49t-65 144h136q15 -71 73 -71q26 0 43 16t17 40q0 27 -21.5 41t-83.5 35q-144 45 -144 166q0 73 55 122.5
t131 49.5q72 0 124.5 -47.5t56.5 -122.5zM420 774l-146 -138h-105l-149 138h145l57 -64l53 64h145z" />
    <glyph glyph-name="Ydieresis" unicode="&#x178;" horiz-adv-x="620" 
d="M378 0h-137v273l-243 467h150l161 -340l162 340h151l-244 -467v-273zM272 806h-134v133h134v-133zM482 806h-133v133h133v-133z" />
    <glyph glyph-name="Zcaron" unicode="&#x17d;" horiz-adv-x="500" 
d="M481 0h-462v112l283 500h-268v128h428v-119l-281 -493h300v-128zM475 944l-146 -138h-105l-149 138h145l57 -64l53 64h145z" />
    <glyph glyph-name="zcaron" unicode="&#x17e;" horiz-adv-x="460" 
d="M442 0h-422v122l246 311h-218v122h377v-122l-246 -311h263v-122zM435 774l-146 -138h-105l-149 138h145l57 -64l53 64h145z" />
    <glyph glyph-name="florin" unicode="&#x192;" 
d="M0 -144l20 114h13q40 0 65 8t40 30t22.5 46.5t15.5 70.5l60 346h-94l19 115h95l6 39q15 96 78.5 147.5t142.5 51.5q21 0 29 -3l-20 -117q-47 0 -72.5 -25t-37.5 -93h92l-19 -115h-93l-71 -417q-35 -205 -246 -205q-22 0 -45 7z" />
    <glyph glyph-name="circumflex" unicode="&#x2c6;" horiz-adv-x="540" 
d="M470 631h-145l-53 64l-57 -64h-144l148 138h105z" />
    <glyph glyph-name="caron" unicode="&#x2c7;" horiz-adv-x="540" 
d="M470 761l-146 -138h-105l-149 138h145l57 -64l53 64h145z" />
    <glyph glyph-name="uni02C9" unicode="&#x2c9;" horiz-adv-x="420" 
d="M349 638h-277v111h277v-111z" />
    <glyph glyph-name="breve" unicode="&#x2d8;" horiz-adv-x="480" 
d="M331 765h108q-10 -66 -62 -101.5t-137 -35.5q-83 0 -135.5 35.5t-62.5 101.5h108q26 -40 91 -40q64 0 90 40z" />
    <glyph glyph-name="dotaccent" unicode="&#x2d9;" horiz-adv-x="280" 
d="M207 636h-133v133h133v-133z" />
    <glyph glyph-name="ring" unicode="&#x2da;" horiz-adv-x="360" 
d="M288 698q0 -44 -32 -75.5t-76 -31.5t-75.5 32t-31.5 75q0 44 31 76t76 32t76.5 -31.5t31.5 -76.5zM221 698q0 17 -12 29t-29 12t-28.5 -12t-11.5 -29t12 -28.5t28 -11.5q17 0 29 11.5t12 28.5z" />
    <glyph glyph-name="ogonek" unicode="&#x2db;" horiz-adv-x="340" 
d="M262 -113v-78q-36 -13 -68 -13q-51 0 -83 26.5t-32 70.5q0 64 86 107h70q-64 -42 -64 -79q0 -21 15 -33t36 -12q16 0 40 11z" />
    <glyph glyph-name="tilde" unicode="&#x2dc;" horiz-adv-x="480" 
d="M383 761l54 -78q-55 -47 -114 -47q-23 0 -73 13.5t-72 13.5q-37 0 -80 -20l-54 81q57 43 116 43q23 0 74 -14.5t73 -14.5q41 0 76 23z" />
    <glyph glyph-name="hungarumlaut" unicode="&#x2dd;" horiz-adv-x="700" 
d="M384 760l-207 -150l-57 76l197 163zM626 760l-207 -150l-57 76l197 163z" />
    <glyph glyph-name="uni03A9" unicode="&#x3a9;" horiz-adv-x="824" 
d="M783 0h-292v124q68 32 115.5 101t47.5 157q0 103 -67 174t-175 71t-175 -71t-67 -174q0 -88 47.5 -157t115.5 -101v-124h-292v124h133q-141 104 -141 272q0 150 109 254t270 104t270 -104t109 -254q0 -168 -141 -272h133v-124z" />
    <glyph glyph-name="uni03BC" unicode="&#x3bc;" horiz-adv-x="623" 
d="M567 0h-126v73h-3q-22 -40 -60 -63t-82 -23q-71 0 -107 39v-211h-133v740h133v-303q0 -138 121 -138q58 0 91 42t33 113v286h133v-555z" />
    <glyph glyph-name="pi" unicode="&#x3c0;" horiz-adv-x="653" 
d="M625 119v-113q-31 -17 -85 -17q-57 0 -91.5 36.5t-34.5 111.5v296h-190v-433h-133v433h-87v122h630v-122h-87v-268q0 -30 9.5 -42t31.5 -12q9 0 18 2t14 4z" />
    <glyph glyph-name="endash" unicode="&#x2013;" horiz-adv-x="500" 
d="M465 230h-430v118h430v-118z" />
    <glyph glyph-name="emdash" unicode="&#x2014;" horiz-adv-x="1000" 
d="M965 230h-930v118h930v-118z" />
    <glyph glyph-name="quoteleft" unicode="&#x2018;" horiz-adv-x="280" 
d="M205 466h-133v144q0 57 34.5 93t97.5 37v-67q-35 -7 -46.5 -21t-11.5 -53h59v-133z" />
    <glyph glyph-name="quoteright" unicode="&#x2019;" horiz-adv-x="280" 
d="M73 466v67q35 7 46.5 21t11.5 53h-59v133h133v-144q0 -57 -34.5 -93t-97.5 -37z" />
    <glyph glyph-name="quotesinglbase" unicode="&#x201a;" horiz-adv-x="280" 
d="M73 -141v67q35 7 46.5 21t11.5 53h-59v133h133v-144q0 -57 -34.5 -93t-97.5 -37z" />
    <glyph glyph-name="quotedblleft" unicode="&#x201c;" horiz-adv-x="480" 
d="M203 466h-133v144q0 57 34.5 93t97.5 37v-67q-35 -7 -46.5 -21t-11.5 -53h59v-133zM410 466h-133v144q0 57 34.5 93t97.5 37v-67q-35 -7 -46.5 -21t-11.5 -53h59v-133z" />
    <glyph glyph-name="quotedblright" unicode="&#x201d;" horiz-adv-x="480" 
d="M71 466v67q35 7 46.5 21t11.5 53h-59v133h133v-144q0 -57 -34.5 -93t-97.5 -37zM278 466v67q35 7 46.5 21t11.5 53h-59v133h133v-144q0 -57 -34.5 -93t-97.5 -37z" />
    <glyph glyph-name="quotedblbase" unicode="&#x201e;" horiz-adv-x="480" 
d="M71 -141v67q35 7 46.5 21t11.5 53h-59v133h133v-144q0 -57 -34.5 -93t-97.5 -37zM278 -141v67q35 7 46.5 21t11.5 53h-59v133h133v-144q0 -57 -34.5 -93t-97.5 -37z" />
    <glyph glyph-name="dagger" unicode="&#x2020;" 
d="M347 -142h-133v584h-163v113h163v185h133v-185h162v-113h-162v-584z" />
    <glyph glyph-name="daggerdbl" unicode="&#x2021;" 
d="M346 -142h-133v209h-162v112h162v296h-162v112h162v153h133v-153h163v-112h-163v-296h163v-112h-163v-209z" />
    <glyph glyph-name="bullet" unicode="&#x2022;" horiz-adv-x="600" 
d="M301 222q-62 0 -107.5 45.5t-45.5 109.5q0 63 44 109t110 46q63 0 107 -45.5t44 -109.5t-45 -109.5t-107 -45.5z" />
    <glyph glyph-name="ellipsis" unicode="&#x2026;" horiz-adv-x="1000" 
d="M233 0h-133v133h133v-133zM566 0h-133v133h133v-133zM899 0h-133v133h133v-133z" />
    <glyph glyph-name="perthousand" unicode="&#x2030;" horiz-adv-x="1280" 
d="M216 394q-74 0 -127 53.5t-53 126.5t53 127t127 54q75 0 127.5 -53.5t52.5 -127.5q0 -72 -52.5 -126t-127.5 -54zM325 0h-101l306 740h102zM216 505q28 0 48.5 20.5t20.5 49.5t-20 49t-50 20q-29 0 -48.5 -20.5t-19.5 -49.5q0 -28 21 -48.5t48 -20.5zM642 -15
q-75 0 -128 54t-53 127q0 75 54 128t127 53q75 0 127.5 -53.5t52.5 -127.5t-53 -127.5t-127 -53.5zM1042 -15q-75 0 -128 54t-53 127q0 75 54 128t127 53q74 0 127 -53.5t53 -127.5t-53 -127.5t-127 -53.5zM642 96q28 0 48.5 21t20.5 49t-20 49t-49 21t-49.5 -20.5
t-20.5 -49.5q0 -28 21 -49t49 -21zM1042 96q28 0 48.5 21t20.5 49t-20 49t-49 21t-49.5 -20.5t-20.5 -49.5q0 -28 21 -49t49 -21z" />
    <glyph glyph-name="guilsinglleft" unicode="&#x2039;" horiz-adv-x="240" 
d="M190 108l-140 131v101l140 129v-123l-67 -57l67 -58v-123z" />
    <glyph glyph-name="guilsinglright" unicode="&#x203a;" horiz-adv-x="240" 
d="M190 239l-140 -131v123l68 58l-68 57v123l140 -129v-101z" />
    <glyph glyph-name="fraction" unicode="&#x2044;" horiz-adv-x="160" 
d="M-25 0h-98l306 740h99z" />
    <glyph glyph-name="zero.superior" unicode="&#x2070;" horiz-adv-x="382" 
d="M350 720v-144q0 -75 -43.5 -119.5t-115.5 -44.5q-69 0 -114 46t-45 116v135q0 71 46 118t114 47q67 0 112.5 -46t45.5 -108zM254 567v152q0 29 -16.5 48.5t-47.5 19.5q-29 0 -45.5 -18.5t-16.5 -49.5v-150q0 -30 17 -50t46 -20t46 19.5t17 48.5z" />
    <glyph glyph-name="zero.superior" unicode="&#xe1ee;" horiz-adv-x="382" 
d="M350 720v-144q0 -75 -43.5 -119.5t-115.5 -44.5q-69 0 -114 46t-45 116v135q0 71 46 118t114 47q67 0 112.5 -46t45.5 -108zM254 567v152q0 29 -16.5 48.5t-47.5 19.5q-29 0 -45.5 -18.5t-16.5 -49.5v-150q0 -30 17 -50t46 -20t46 19.5t17 48.5z" />
    <glyph glyph-name="four.superior" unicode="&#x2074;" horiz-adv-x="378" 
d="M311 421h-90v65h-198v70l212 309h76v-297h49v-82h-49v-65zM221 568v159h-2l-97 -159h99z" />
    <glyph glyph-name="four.superior" unicode="&#xe1ef;" horiz-adv-x="378" 
d="M311 421h-90v65h-198v70l212 309h76v-297h49v-82h-49v-65zM221 568v159h-2l-97 -159h99z" />
    <glyph glyph-name="five.superior" unicode="&#x2075;" horiz-adv-x="359" 
d="M301 779h-155l-12 -72q26 19 62 19q64 0 104.5 -42.5t40.5 -108.5q0 -71 -45.5 -117t-116.5 -46q-63 0 -108.5 40.5t-54.5 106.5h93q14 -61 69 -61q31 0 49 20t18 53q0 30 -18.5 49.5t-48.5 19.5q-40 0 -66 -32l-77 18l42 239h224v-86z" />
    <glyph glyph-name="five.superior" unicode="&#xe1f0;" horiz-adv-x="359" 
d="M301 779h-155l-12 -72q26 19 62 19q64 0 104.5 -42.5t40.5 -108.5q0 -71 -45.5 -117t-116.5 -46q-63 0 -108.5 40.5t-54.5 106.5h93q14 -61 69 -61q31 0 49 20t18 53q0 30 -18.5 49.5t-48.5 19.5q-40 0 -66 -32l-77 18l42 239h224v-86z" />
    <glyph glyph-name="six.superior" unicode="&#x2076;" horiz-adv-x="355" 
d="M175 726l1 -1q7 6 30 6q58 0 98.5 -44.5t40.5 -106.5q0 -71 -47 -119.5t-118 -48.5q-70 0 -118.5 47.5t-48.5 115.5q0 58 42 120l112 170h113zM179 498q31 0 50.5 20.5t19.5 54.5q0 33 -19.5 55t-51.5 22q-30 0 -50 -20.5t-20 -53.5q0 -34 19.5 -56t51.5 -22z" />
    <glyph glyph-name="six.superior" unicode="&#xe1f1;" horiz-adv-x="355" 
d="M175 726l1 -1q7 6 30 6q58 0 98.5 -44.5t40.5 -106.5q0 -71 -47 -119.5t-118 -48.5q-70 0 -118.5 47.5t-48.5 115.5q0 58 42 120l112 170h113zM179 498q31 0 50.5 20.5t19.5 54.5q0 33 -19.5 55t-51.5 22q-30 0 -50 -20.5t-20 -53.5q0 -34 19.5 -56t51.5 -22z" />
    <glyph glyph-name="seven.superior" unicode="&#x2077;" horiz-adv-x="317" 
d="M137 421h-103l160 357h-176v87h277v-83z" />
    <glyph glyph-name="seven.superior" unicode="&#xe1f2;" horiz-adv-x="317" 
d="M137 421h-103l160 357h-176v87h277v-83z" />
    <glyph glyph-name="eight.superior" unicode="&#x2078;" horiz-adv-x="354" 
d="M276 665q62 -38 62 -108q0 -62 -47 -103.5t-113 -41.5q-68 0 -115 42t-47 102q0 71 61 110q-38 33 -38 80q0 52 40.5 90t98.5 38q57 0 97 -37.5t40 -90.5q0 -48 -39 -81zM227 749q0 18 -12.5 30.5t-36.5 12.5q-23 0 -37 -13t-14 -33q0 -19 13.5 -32t36.5 -13
q24 0 37 13.5t13 34.5zM245 558q0 29 -18.5 47t-50.5 18q-28 0 -47 -18.5t-19 -46.5q0 -25 19 -42.5t48 -17.5q30 0 49 17.5t19 42.5z" />
    <glyph glyph-name="eight.superior" unicode="&#xe1f3;" horiz-adv-x="354" 
d="M276 665q62 -38 62 -108q0 -62 -47 -103.5t-113 -41.5q-68 0 -115 42t-47 102q0 71 61 110q-38 33 -38 80q0 52 40.5 90t98.5 38q57 0 97 -37.5t40 -90.5q0 -48 -39 -81zM227 749q0 18 -12.5 30.5t-36.5 12.5q-23 0 -37 -13t-14 -33q0 -19 13.5 -32t36.5 -13
q24 0 37 13.5t13 34.5zM245 558q0 29 -18.5 47t-50.5 18q-28 0 -47 -18.5t-19 -46.5q0 -25 19 -42.5t48 -17.5q30 0 49 17.5t19 42.5z" />
    <glyph glyph-name="nine.superior" unicode="&#x2079;" horiz-adv-x="355" 
d="M188 421h-113l105 139l-1 1q-7 -6 -30 -6q-59 0 -99 44.5t-40 106.5q0 71 47 119.5t118 48.5t119 -48t48 -115q0 -56 -36 -112zM177 636q31 0 50.5 20.5t19.5 53.5q0 35 -19.5 56.5t-52.5 21.5q-30 0 -49.5 -21t-19.5 -54q0 -34 19.5 -55.5t51.5 -21.5z" />
    <glyph glyph-name="nine.superior" unicode="&#xe1f4;" horiz-adv-x="355" 
d="M188 421h-113l105 139l-1 1q-7 -6 -30 -6q-59 0 -99 44.5t-40 106.5q0 71 47 119.5t118 48.5t119 -48t48 -115q0 -56 -36 -112zM177 636q31 0 50.5 20.5t19.5 53.5q0 35 -19.5 56.5t-52.5 21.5q-30 0 -49.5 -21t-19.5 -54q0 -34 19.5 -55.5t51.5 -21.5z" />
    <glyph glyph-name="zero.inferior" unicode="&#x2080;" horiz-adv-x="382" 
d="M350 175v-144q0 -75 -43.5 -119.5t-115.5 -44.5q-69 0 -114 46t-45 116v135q0 71 46 118t114 47q67 0 112.5 -46t45.5 -108zM254 22v152q0 29 -16.5 48.5t-47.5 19.5q-29 0 -45.5 -18.5t-16.5 -49.5v-150q0 -30 17 -50t46 -20t46 19.5t17 48.5z" />
    <glyph glyph-name="zero.inferior" unicode="&#xe1f5;" horiz-adv-x="382" 
d="M350 175v-144q0 -75 -43.5 -119.5t-115.5 -44.5q-69 0 -114 46t-45 116v135q0 71 46 118t114 47q67 0 112.5 -46t45.5 -108zM254 22v152q0 29 -16.5 48.5t-47.5 19.5q-29 0 -45.5 -18.5t-16.5 -49.5v-150q0 -30 17 -50t46 -20t46 19.5t17 48.5z" />
    <glyph glyph-name="one.inferior" unicode="&#x2081;" horiz-adv-x="248" 
d="M176 -124h-96v358h-55v86h151v-444z" />
    <glyph glyph-name="one.inferior" unicode="&#xe1f6;" horiz-adv-x="248" 
d="M176 -124h-96v358h-55v86h151v-444z" />
    <glyph glyph-name="two.inferior" unicode="&#x2082;" horiz-adv-x="336" 
d="M322 -124h-304v81l159 147q49 45 49 80q0 26 -16.5 42.5t-42.5 16.5q-58 0 -58 -80h-95q-1 3 -1 16q0 65 46.5 107.5t107.5 42.5q63 0 109 -43t46 -104q0 -73 -87 -149l-80 -71h167v-86z" />
    <glyph glyph-name="two.inferior" unicode="&#xe1f7;" horiz-adv-x="336" 
d="M322 -124h-304v81l159 147q49 45 49 80q0 26 -16.5 42.5t-42.5 16.5q-58 0 -58 -80h-95q-1 3 -1 16q0 65 46.5 107.5t107.5 42.5q63 0 109 -43t46 -104q0 -73 -87 -149l-80 -71h167v-86z" />
    <glyph glyph-name="three.inferior" unicode="&#x2083;" horiz-adv-x="336" 
d="M139 83h-6v86h11q31 0 43 9t12 30q0 35 -34 35q-28 0 -28 -36h-96q3 55 38 88.5t88 33.5q51 0 89.5 -36.5t38.5 -85.5q0 -48 -34 -76q32 -14 49.5 -44.5t17.5 -69.5q0 -63 -47.5 -106.5t-114.5 -43.5q-64 0 -109 41.5t-49 106.5h96q2 -28 20 -45t45 -17t45 18.5t18 45.5
q0 34 -21.5 50t-71.5 16z" />
    <glyph glyph-name="three.inferior" unicode="&#xe1f8;" horiz-adv-x="336" 
d="M139 83h-6v86h11q31 0 43 9t12 30q0 35 -34 35q-28 0 -28 -36h-96q3 55 38 88.5t88 33.5q51 0 89.5 -36.5t38.5 -85.5q0 -48 -34 -76q32 -14 49.5 -44.5t17.5 -69.5q0 -63 -47.5 -106.5t-114.5 -43.5q-64 0 -109 41.5t-49 106.5h96q2 -28 20 -45t45 -17t45 18.5t18 45.5
q0 34 -21.5 50t-71.5 16z" />
    <glyph glyph-name="four.inferior" unicode="&#x2084;" horiz-adv-x="378" 
d="M311 -124h-90v65h-198v70l212 309h76v-297h49v-82h-49v-65zM221 23v159h-2l-97 -159h99z" />
    <glyph glyph-name="four.inferior" unicode="&#xe1f9;" horiz-adv-x="378" 
d="M311 -124h-90v65h-198v70l212 309h76v-297h49v-82h-49v-65zM221 23v159h-2l-97 -159h99z" />
    <glyph glyph-name="five.inferior" unicode="&#x2085;" horiz-adv-x="359" 
d="M301 234h-155l-12 -72q26 19 62 19q64 0 104.5 -42.5t40.5 -108.5q0 -71 -45.5 -117t-116.5 -46q-63 0 -108.5 40.5t-54.5 106.5h93q14 -61 69 -61q31 0 49 20t18 53q0 30 -18.5 49.5t-48.5 19.5q-40 0 -66 -32l-77 18l42 239h224v-86z" />
    <glyph glyph-name="five.inferior" unicode="&#xe1fa;" horiz-adv-x="359" 
d="M301 234h-155l-12 -72q26 19 62 19q64 0 104.5 -42.5t40.5 -108.5q0 -71 -45.5 -117t-116.5 -46q-63 0 -108.5 40.5t-54.5 106.5h93q14 -61 69 -61q31 0 49 20t18 53q0 30 -18.5 49.5t-48.5 19.5q-40 0 -66 -32l-77 18l42 239h224v-86z" />
    <glyph glyph-name="six.inferior" unicode="&#x2086;" horiz-adv-x="355" 
d="M175 181l1 -1q8 6 30 6q58 0 98.5 -44.5t40.5 -106.5q0 -71 -47 -119.5t-118 -48.5q-70 0 -118.5 47.5t-48.5 115.5q0 58 42 120l112 170h113zM179 -47q31 0 50.5 20.5t19.5 54.5q0 33 -19.5 55t-51.5 22q-30 0 -50 -20.5t-20 -53.5q0 -34 19.5 -56t51.5 -22z" />
    <glyph glyph-name="six.inferior" unicode="&#xe1fb;" horiz-adv-x="355" 
d="M175 181l1 -1q8 6 30 6q58 0 98.5 -44.5t40.5 -106.5q0 -71 -47 -119.5t-118 -48.5q-70 0 -118.5 47.5t-48.5 115.5q0 58 42 120l112 170h113zM179 -47q31 0 50.5 20.5t19.5 54.5q0 33 -19.5 55t-51.5 22q-30 0 -50 -20.5t-20 -53.5q0 -34 19.5 -56t51.5 -22z" />
    <glyph glyph-name="seven.inferior" unicode="&#x2087;" horiz-adv-x="317" 
d="M137 -124h-103l160 357h-176v87h277v-83z" />
    <glyph glyph-name="seven.inferior" unicode="&#xe1fc;" horiz-adv-x="317" 
d="M137 -124h-103l160 357h-176v87h277v-83z" />
    <glyph glyph-name="eight.inferior" unicode="&#x2088;" horiz-adv-x="354" 
d="M276 120q62 -38 62 -108q0 -62 -47 -103.5t-113 -41.5q-68 0 -115 42t-47 102q0 71 61 110q-38 33 -38 80q0 52 40.5 90t98.5 38q57 0 97 -37.5t40 -90.5q0 -49 -39 -81zM227 204q0 18 -12.5 30.5t-36.5 12.5q-23 0 -37 -13t-14 -33q0 -19 13.5 -32t36.5 -13
q24 0 37 13.5t13 34.5zM245 13q0 29 -18.5 47t-50.5 18q-28 0 -47 -18.5t-19 -46.5q0 -25 19 -42.5t48 -17.5q30 0 49 17.5t19 42.5z" />
    <glyph glyph-name="eight.inferior" unicode="&#xe1fd;" horiz-adv-x="354" 
d="M276 120q62 -38 62 -108q0 -62 -47 -103.5t-113 -41.5q-68 0 -115 42t-47 102q0 71 61 110q-38 33 -38 80q0 52 40.5 90t98.5 38q57 0 97 -37.5t40 -90.5q0 -49 -39 -81zM227 204q0 18 -12.5 30.5t-36.5 12.5q-23 0 -37 -13t-14 -33q0 -19 13.5 -32t36.5 -13
q24 0 37 13.5t13 34.5zM245 13q0 29 -18.5 47t-50.5 18q-28 0 -47 -18.5t-19 -46.5q0 -25 19 -42.5t48 -17.5q30 0 49 17.5t19 42.5z" />
    <glyph glyph-name="nine.inferior" unicode="&#x2089;" horiz-adv-x="355" 
d="M188 -124h-113l105 139l-1 1q-7 -6 -30 -6q-59 0 -99 44.5t-40 106.5q0 71 47 119.5t118 48.5t119 -48t48 -115q0 -56 -36 -112zM177 91q31 0 50.5 20.5t19.5 53.5q0 35 -19.5 56.5t-52.5 21.5q-30 0 -49.5 -21t-19.5 -54q0 -34 19.5 -55.5t51.5 -21.5z" />
    <glyph glyph-name="nine.inferior" unicode="&#xe1fe;" horiz-adv-x="355" 
d="M188 -124h-113l105 139l-1 1q-7 -6 -30 -6q-59 0 -99 44.5t-40 106.5q0 71 47 119.5t118 48.5t119 -48t48 -115q0 -56 -36 -112zM177 91q31 0 50.5 20.5t19.5 53.5q0 35 -19.5 56.5t-52.5 21.5q-30 0 -49.5 -21t-19.5 -54q0 -34 19.5 -55.5t51.5 -21.5z" />
    <glyph glyph-name="Euro" unicode="&#x20ac;" 
d="M417 194h124q-30 -208 -221 -208q-96 0 -158 60t-79 189h-83l34 95h41v55h-75l34 95h48q15 143 81.5 208.5t159.5 65.5q90 0 146 -53.5t69 -152.5h-125q-16 80 -90 80q-47 0 -75 -31.5t-35 -116.5h272l-34 -95h-243v-55h223l-35 -95h-180q8 -70 35 -96.5t74 -26.5
q38 0 61 18t31 64z" />
    <glyph glyph-name="uni20B9" unicode="&#x20b9;" 
d="M434 0h-164l-217 298v95h95q75 0 113.5 21t38.5 81h-247v95h238q-14 35 -46 45t-95 10h-97v95h497v-95h-161q27 -22 36 -55h125v-95h-117q0 -196 -241 -196z" />
    <glyph glyph-name="uni20BA" unicode="&#x20ba;" 
d="M108 0v265l-82 -43v106l82 43v63l-82 -43v107l82 43v199h133v-128l193 103v-107l-193 -103v-63l193 103v-107l-193 -102v-218q175 0 175 259h133q0 -185 -76.5 -284.5t-245.5 -99.5q-58 0 -119 7z" />
    <glyph glyph-name="uni20BC" unicode="&#x20bc;" horiz-adv-x="813" 
d="M773 0h-133v242q0 116 -35.5 165.5t-131.5 55.5v-391h-133v391q-96 -6 -131.5 -55.5t-35.5 -165.5v-242h-133v292q0 136 84 211t216 79v158h133v-158q132 -4 216 -79t84 -211v-292z" />
    <glyph glyph-name="ruble" unicode="&#x20bd;" 
d="M402 160h-185v-160h-132v160h-55v95h55v55h-55v95h55v335h215q121 0 184.5 -57t63.5 -158q0 -103 -63.5 -159t-183.5 -56h-84v-55h185v-95zM217 405h57q142 4 142 120q0 44 -32 68t-118 24h-49v-212z" />
    <glyph glyph-name="litre" unicode="&#x2113;" horiz-adv-x="499" 
d="M378 127l40 -72q-68 -70 -144 -70q-66 0 -102 45t-36 121v65l-44 -48l-45 62l89 94v214q0 88 38.5 138.5t105.5 50.5q53 0 83.5 -34t30.5 -87q0 -68 -33.5 -137t-110.5 -156v-157q0 -79 49 -79q33 0 79 50zM250 551v-120q62 85 62 165q0 41 -24 41q-38 0 -38 -86z" />
    <glyph glyph-name="trademark" unicode="&#x2122;" horiz-adv-x="1000" 
d="M188 296h-94v361h-85v83h265v-83h-86v-361zM821 296h-94v306h-2l-109 -306h-78l-109 306h-2v-306h-94v444h126l119 -322l118 322h125v-444z" />
    <glyph glyph-name="Omega" unicode="&#x2126;" horiz-adv-x="824" 
d="M783 0h-292v124q68 32 115.5 101t47.5 157q0 103 -67 174t-175 71t-175 -71t-67 -174q0 -88 47.5 -157t115.5 -101v-124h-292v124h133q-141 104 -141 272q0 150 109 254t270 104t270 -104t109 -254q0 -168 -141 -272h133v-124z" />
    <glyph glyph-name="estimated" unicode="&#x212e;" horiz-adv-x="662" 
d="M533 156l36 -22q-53 -78 -111.5 -112t-137.5 -34q-124 0 -202 84.5t-78 215.5q0 130 77.5 215t203.5 85q123 0 201.5 -80.5t84.5 -219.5h-444v-198q65 -65 157 -65q133 0 213 131zM480 325v160q-66 66 -161 66q-92 0 -156 -64v-162h317z" />
    <glyph glyph-name="onethird" unicode="&#x2153;" horiz-adv-x="746" 
d="M176 296h-96v358h-55v86h151v-444zM208 0h-98l306 740h99zM527 207h-6v86h7q34 0 46.5 9t12.5 30q0 35 -34 35q-28 0 -28 -36h-96q4 55 38.5 88.5t87.5 33.5q51 0 89.5 -36t38.5 -86q0 -48 -34 -76q32 -14 49.5 -44.5t17.5 -69.5q0 -64 -47 -107t-115 -43
q-65 0 -109.5 41t-48.5 107h96q3 -28 20.5 -45t44.5 -17t45 18.5t18 45.5q0 34 -21.5 50t-71.5 16z" />
    <glyph glyph-name="twothirds" unicode="&#x2154;" horiz-adv-x="881" 
d="M329 296h-304v81l159 147q49 45 49 80q0 26 -16.5 42.5t-42.5 16.5q-58 0 -58 -80h-95q-1 3 -1 16q0 65 46.5 107.5t107.5 42.5q63 0 109 -43t46 -104q0 -73 -87 -149l-80 -71h167v-86zM343 0h-98l306 740h99zM662 207h-6v86h11q31 0 43 9t12 30q0 35 -34 35
q-28 0 -28 -36h-96q3 54 38.5 88t87.5 34t90 -36.5t38 -85.5q0 -46 -34 -76q32 -14 49.5 -44.5t17.5 -69.5q0 -64 -47 -107t-115 -43q-65 0 -109.5 41t-48.5 107h96q2 -28 20 -45t45 -17t45 18.5t18 45.5q0 34 -21.5 50t-71.5 16z" />
    <glyph glyph-name="oneeighth" unicode="&#x215b;" horiz-adv-x="758" 
d="M176 296h-96v358h-55v86h151v-444zM208 0h-98l306 740h99zM666 244q62 -36 62 -108q0 -61 -47 -103t-113 -42q-67 0 -114.5 41.5t-47.5 102.5q0 69 61 110q-38 32 -38 80q0 55 41.5 91.5t97.5 36.5t96.5 -37t40.5 -91q0 -49 -39 -81zM617 328q0 19 -12.5 31t-37.5 12
q-23 0 -36.5 -12.5t-13.5 -33.5q0 -20 13.5 -32.5t36.5 -12.5q24 0 37 13.5t13 34.5zM635 138q0 28 -18.5 46t-50.5 18q-28 0 -47 -18t-19 -47q0 -25 19 -42.5t48 -17.5q30 0 49 18t19 43z" />
    <glyph glyph-name="threeeighths" unicode="&#x215c;" horiz-adv-x="892" 
d="M149 503h-6v86h11q31 0 43 9t12 30q0 35 -34 35q-28 0 -28 -36h-96q3 55 38 88.5t88 33.5q51 0 89.5 -36.5t38.5 -85.5q0 -48 -34 -76q32 -14 49.5 -44.5t17.5 -69.5q0 -63 -47.5 -106.5t-114.5 -43.5q-64 0 -109 41.5t-49 106.5h96q2 -28 20 -45t45 -17t45 18.5t18 45.5
q0 34 -21.5 50t-71.5 16zM800 244q62 -36 62 -108q0 -61 -47 -103t-113 -42q-67 0 -114.5 41.5t-47.5 102.5q0 69 61 110q-38 32 -38 80q0 55 41.5 91.5t97.5 36.5t96.5 -37t40.5 -91q0 -49 -39 -81zM751 328q0 19 -12.5 31t-37.5 12q-23 0 -36.5 -12.5t-13.5 -33.5
q0 -20 13.5 -32.5t36.5 -12.5q24 0 37 13.5t13 34.5zM769 138q0 28 -18.5 46t-50.5 18q-28 0 -47 -18t-19 -47q0 -25 19 -42.5t48 -17.5q30 0 49 18t19 43zM342 0h-98l306 740h99z" />
    <glyph glyph-name="fiveeighths" unicode="&#x215d;" horiz-adv-x="892" 
d="M301 654h-155l-12 -72q26 19 62 19q65 0 105 -42.5t40 -108.5q0 -71 -46 -117t-116 -46q-63 0 -108.5 40.5t-54.5 106.5h93q14 -61 69 -61q31 0 49 20t18 53q0 30 -18.5 49.5t-48.5 19.5q-40 0 -66 -32l-77 18l42 239h224v-86zM342 0h-98l306 740h99zM800 244
q62 -36 62 -108q0 -61 -47 -103t-113 -42q-67 0 -114.5 41.5t-47.5 102.5q0 69 61 110q-38 32 -38 80q0 55 41.5 91.5t97.5 36.5t96.5 -37t40.5 -91q0 -49 -39 -81zM751 328q0 19 -12.5 31t-37.5 12q-23 0 -36.5 -12.5t-13.5 -33.5q0 -20 13.5 -32.5t36.5 -12.5
q24 0 37 13.5t13 34.5zM769 138q0 28 -18.5 46t-50.5 18q-28 0 -47 -18t-19 -47q0 -25 19 -42.5t48 -17.5q30 0 49 18t19 43z" />
    <glyph glyph-name="seveneighths" unicode="&#x215e;" horiz-adv-x="777" 
d="M127 296h-103l160 357h-176v87h277v-83zM227 0h-98l306 740h99zM685 244q62 -36 62 -108q0 -61 -47 -103t-113 -42q-67 0 -114.5 41.5t-47.5 102.5q0 69 61 110q-38 32 -38 80q0 55 41.5 91.5t97.5 36.5t96.5 -37t40.5 -91q0 -49 -39 -81zM636 328q0 19 -12.5 31
t-37.5 12q-23 0 -36.5 -12.5t-13.5 -33.5q0 -20 13.5 -32.5t36.5 -12.5q24 0 37 13.5t13 34.5zM654 138q0 28 -18.5 46t-50.5 18q-28 0 -47 -18t-19 -47q0 -25 19 -42.5t48 -17.5q30 0 49 18t19 43z" />
    <glyph glyph-name="partialdiff" unicode="&#x2202;" horiz-adv-x="582" 
d="M211 603l-29 86q58 39 141 39q105 0 164.5 -67t59.5 -186q0 -130 -38.5 -240.5t-110 -178t-160.5 -67.5q-88 0 -142 55.5t-54 143.5q0 136 78.5 224t185.5 88q73 0 121 -46q1 5 1 31q0 77 -32 113t-87 36q-47 0 -98 -31zM410 343q-25 67 -91 67q-61 0 -108.5 -67.5
t-47.5 -159.5q0 -45 21 -71t56 -26q55 0 102 68.5t68 188.5z" />
    <glyph glyph-name="Delta" unicode="&#x2206;" horiz-adv-x="740" 
d="M732 0h-725l304 740h118zM529 128l-160 422l-161 -422h321z" />
    <glyph glyph-name="product" unicode="&#x220f;" horiz-adv-x="721" 
d="M645 -224h-123v818h-322v-818h-123v924h568v-924z" />
    <glyph glyph-name="summation" unicode="&#x2211;" horiz-adv-x="633" 
d="M587 -224h-567v62l297 404l-277 390v68h525v-101h-370l252 -354l-269 -368h409v-101z" />
    <glyph glyph-name="minus" unicode="&#x2212;" horiz-adv-x="600" 
d="M552 193h-504v120h504v-120z" />
    <glyph glyph-name="uni2215" unicode="&#x2215;" horiz-adv-x="160" 
d="M-25 0h-98l306 740h99z" />
    <glyph glyph-name="uni2219" unicode="&#x2219;" horiz-adv-x="280" 
d="M206 187h-133v133h133v-133z" />
    <glyph glyph-name="radical" unicode="&#x221a;" horiz-adv-x="542" 
d="M359 -12h-112l-126 310l-51 -32l-43 68l165 105l107 -267l138 556h106z" />
    <glyph glyph-name="infinity" unicode="&#x221e;" horiz-adv-x="790" 
d="M390 206q-74 -91 -170 -91q-78 0 -129 50.5t-51 127.5q0 79 51 129t127 50q92 0 174 -88q66 88 169 88q79 0 129.5 -49.5t50.5 -126.5t-50 -129t-127 -52q-97 0 -174 91zM332 294q-48 75 -108 75q-32 0 -51 -21t-19 -56q0 -32 20.5 -53.5t51.5 -21.5q56 0 106 77z
M448 295q56 -78 109 -78q32 0 51 22t19 56q0 33 -19 53.5t-52 20.5q-59 0 -108 -74z" />
    <glyph glyph-name="integral" unicode="&#x222b;" horiz-adv-x="492" 
d="M41 -208l24 92q25 -12 49 -12q32 0 48.5 21t16.5 57v612q0 86 44.5 136t127.5 50q48 0 89 -19l-26 -88q-32 10 -50 10q-31 0 -47.5 -21t-16.5 -58v-613q0 -85 -44.5 -134t-126.5 -49q-51 0 -88 16z" />
    <glyph glyph-name="approxequal" unicode="&#x2248;" horiz-adv-x="600" 
d="M486 513l80 -90q-38 -55 -75.5 -77.5t-87.5 -22.5q-57 0 -115.5 31t-87.5 31q-41 0 -87 -71l-80 91q39 54 76.5 76.5t85.5 22.5q57 0 116 -31t88 -31q41 0 87 71zM486 285l80 -90q-38 -55 -75.5 -77.5t-87.5 -22.5q-57 0 -115.5 31t-87.5 31q-41 0 -87 -71l-80 91
q39 54 76.5 76.5t85.5 22.5q57 0 116 -31t88 -31q41 0 87 71z" />
    <glyph glyph-name="notequal" unicode="&#x2260;" horiz-adv-x="600" 
d="M552 81h-275l-50 -104h-133l50 104h-96v120h155l50 104h-205v120h264l61 126h133l-61 -126h107v-120h-166l-50 -104h216v-120z" />
    <glyph glyph-name="lessequal" unicode="&#x2264;" horiz-adv-x="600" 
d="M552 152l-504 188v103l504 187v-126l-335 -115l335 -113v-124zM552 0h-504v120h504v-120z" />
    <glyph glyph-name="greaterequal" unicode="&#x2265;" horiz-adv-x="600" 
d="M552 340l-504 -188v124l335 113l-335 115v126l504 -187v-103zM552 0h-504v120h504v-120z" />
    <glyph glyph-name="lozenge" unicode="&#x25ca;" horiz-adv-x="600" 
d="M351 0h-103l-201 348l202 352h102l202 -349zM299 122l133 228l-132 229l-133 -229z" />
    <glyph glyph-name="A.alt01" unicode="&#xe000;" horiz-adv-x="715" 
d="M645 0h-137v191h-210l-132 -191h-166l520 740h125v-740zM508 319v177h-2l-120 -177h122z" />
    <glyph glyph-name="Aacute.alt01" unicode="&#xe001;" horiz-adv-x="715" 
d="M645 0h-137v191h-210l-132 -191h-166l520 740h125v-740zM508 319v177h-2l-120 -177h122zM739 885l-226 -125l-53 92l222 135z" />
    <glyph glyph-name="Agrave.alt01" unicode="&#xe002;" horiz-adv-x="715" 
d="M645 0h-137v191h-210l-132 -191h-166l520 740h125v-740zM508 319v177h-2l-120 -177h122zM613 764l-226 125l57 102l222 -135z" />
    <glyph glyph-name="Acircumflex.alt01" unicode="&#xe003;" horiz-adv-x="715" 
d="M645 0h-137v191h-210l-132 -191h-166l520 740h125v-740zM508 319v177h-2l-120 -177h122zM782 798h-131l-80 67l-80 -67h-133l170 154h88z" />
    <glyph glyph-name="Adieresis.alt01" unicode="&#xe004;" horiz-adv-x="715" 
d="M645 0h-137v191h-210l-132 -191h-166l520 740h125v-740zM508 319v177h-2l-120 -177h122zM535 801h-126v142h126v-142zM751 801h-126v142h126v-142z" />
    <glyph glyph-name="Atilde.alt01" unicode="&#xe005;" horiz-adv-x="715" 
d="M645 0h-137v191h-210l-132 -191h-166l520 740h125v-740zM508 319v177h-2l-120 -177h122zM707 935l46 -88q-54 -37 -109 -37q-23 0 -81 14t-82 14q-42 0 -77 -26l-46 90q52 36 106 36q25 0 83 -14t82 -14q48 0 78 25z" />
    <glyph glyph-name="Aring.alt01" unicode="&#xe006;" horiz-adv-x="715" 
d="M645 0h-137v191h-210l-132 -191h-166l520 740h125v-740zM508 319v177h-2l-120 -177h122zM568 764q-47 0 -82 34.5t-35 82.5q0 49 35 83t83 34t82 -35t34 -82q0 -48 -35 -82.5t-82 -34.5zM617 882q0 21 -14.5 35t-36.5 14q-19 0 -33 -15t-14 -35t14.5 -34t34.5 -14
t34.5 14.5t14.5 34.5z" />
    <glyph glyph-name="A.alt02" unicode="&#xe00a;" horiz-adv-x="706" 
d="M706 0h-166l-132 191h-210v-191h-137v740h125zM320 319l-120 177h-2v-177h122z" />
    <glyph glyph-name="Aacute.alt02" unicode="&#xe00b;" horiz-adv-x="706" 
d="M706 0h-166l-132 191h-210v-191h-137v740h125zM320 319l-120 177h-2v-177h122zM320 886l-226 -125l-53 92l222 135z" />
    <glyph glyph-name="Agrave.alt02" unicode="&#xe00c;" horiz-adv-x="706" 
d="M706 0h-166l-132 191h-210v-191h-137v740h125zM320 319l-120 177h-2v-177h122zM213 758l-226 125l57 102l222 -135z" />
    <glyph glyph-name="Acircumflex.alt02" unicode="&#xe00d;" horiz-adv-x="706" 
d="M706 0h-166l-132 191h-210v-191h-137v740h125zM320 319l-120 177h-2v-177h122zM353 798h-131l-80 67l-80 -67h-133l170 154h88z" />
    <glyph glyph-name="Adieresis.alt02" unicode="&#xe00e;" horiz-adv-x="706" 
d="M706 0h-166l-132 191h-210v-191h-137v740h125zM320 319l-120 177h-2v-177h122zM82 801h-126v142h126v-142zM298 801h-126v142h126v-142z" />
    <glyph glyph-name="Atilde.alt02" unicode="&#xe00f;" horiz-adv-x="706" 
d="M706 0h-166l-132 191h-210v-191h-137v740h125zM320 319l-120 177h-2v-177h122zM289 934l46 -88q-54 -37 -109 -37q-23 0 -81 14t-82 14q-42 0 -77 -26l-46 90q52 36 106 36q25 0 83 -14t82 -14q48 0 78 25z" />
    <glyph glyph-name="Aring.alt02" unicode="&#xe010;" horiz-adv-x="706" 
d="M706 0h-166l-132 191h-210v-191h-137v740h125zM320 319l-120 177h-2v-177h122zM128 764q-47 0 -82 34.5t-35 82.5t35 82.5t83 34.5q47 0 81.5 -35t34.5 -82q0 -48 -35 -82.5t-82 -34.5zM177 882q0 21 -14.5 35t-36.5 14q-19 0 -33 -15t-14 -35t14.5 -34t34.5 -14t34.5 14
t14.5 35z" />
    <glyph glyph-name="A.alt03" unicode="&#xe014;" horiz-adv-x="867" 
d="M796 0h-137v94h-2q-85 -109 -254 -109q-154 0 -262 110.5t-108 272.5q0 158 107.5 272.5t261.5 114.5q169 0 255 -112h2v97h137v-740zM420 113q109 0 179.5 74.5t70.5 181.5q0 104 -73.5 181t-177.5 77q-105 0 -177 -74t-72 -184q0 -107 71 -181.5t179 -74.5z" />
    <glyph glyph-name="Aacute.alt03" unicode="&#xe015;" horiz-adv-x="867" 
d="M796 0h-137v94h-2q-85 -109 -254 -109q-154 0 -262 110.5t-108 272.5q0 158 107.5 272.5t261.5 114.5q169 0 255 -112h2v97h137v-740zM420 113q109 0 179.5 74.5t70.5 181.5q0 104 -73.5 181t-177.5 77q-105 0 -177 -74t-72 -184q0 -107 71 -181.5t179 -74.5zM582 901
l-226 -125l-53 92l222 135z" />
    <glyph glyph-name="Agrave.alt03" unicode="&#xe016;" horiz-adv-x="867" 
d="M796 0h-137v94h-2q-85 -109 -254 -109q-154 0 -262 110.5t-108 272.5q0 158 107.5 272.5t261.5 114.5q169 0 255 -112h2v97h137v-740zM420 113q109 0 179.5 74.5t70.5 181.5q0 104 -73.5 181t-177.5 77q-105 0 -177 -74t-72 -184q0 -107 71 -181.5t179 -74.5zM467 773
l-226 125l57 102l222 -135z" />
    <glyph glyph-name="Acircumflex.alt03" unicode="&#xe017;" horiz-adv-x="867" 
d="M796 0h-137v94h-2q-85 -109 -254 -109q-154 0 -262 110.5t-108 272.5q0 158 107.5 272.5t261.5 114.5q169 0 255 -112h2v97h137v-740zM420 113q109 0 179.5 74.5t70.5 181.5q0 104 -73.5 181t-177.5 77q-105 0 -177 -74t-72 -184q0 -107 71 -181.5t179 -74.5zM627 798
h-131l-80 67l-80 -67h-133l170 154h88z" />
    <glyph glyph-name="Adieresis.alt03" unicode="&#xe018;" horiz-adv-x="867" 
d="M796 0h-137v94h-2q-85 -109 -254 -109q-154 0 -262 110.5t-108 272.5q0 158 107.5 272.5t261.5 114.5q169 0 255 -112h2v97h137v-740zM420 113q109 0 179.5 74.5t70.5 181.5q0 104 -73.5 181t-177.5 77q-105 0 -177 -74t-72 -184q0 -107 71 -181.5t179 -74.5zM385 801
h-126v142h126v-142zM601 801h-126v142h126v-142z" />
    <glyph glyph-name="Atilde.alt03" unicode="&#xe019;" horiz-adv-x="867" 
d="M796 0h-137v94h-2q-85 -109 -254 -109q-154 0 -262 110.5t-108 272.5q0 158 107.5 272.5t261.5 114.5q169 0 255 -112h2v97h137v-740zM420 113q109 0 179.5 74.5t70.5 181.5q0 104 -73.5 181t-177.5 77q-105 0 -177 -74t-72 -184q0 -107 71 -181.5t179 -74.5zM563 934
l46 -88q-54 -37 -109 -37q-23 0 -81 14t-82 14q-42 0 -77 -26l-46 90q52 36 106 36q25 0 83 -14t82 -14q48 0 78 25z" />
    <glyph glyph-name="Aring.alt03" unicode="&#xe01a;" horiz-adv-x="867" 
d="M796 0h-137v94h-2q-85 -109 -254 -109q-154 0 -262 110.5t-108 272.5q0 158 107.5 272.5t261.5 114.5q169 0 255 -112h2v97h137v-740zM420 113q109 0 179.5 74.5t70.5 181.5q0 104 -73.5 181t-177.5 77q-105 0 -177 -74t-72 -184q0 -107 71 -181.5t179 -74.5zM514 889
q0 -44 -32 -75.5t-76 -31.5t-75.5 32t-31.5 75q0 44 31 76t76 32t76.5 -31.5t31.5 -76.5zM447 889q0 17 -12 29t-29 12t-28.5 -12t-11.5 -29t12 -28.5t28 -11.5q17 0 29 11.5t12 28.5z" />
    <glyph glyph-name="C.alt01" unicode="&#xe01e;" horiz-adv-x="577" 
d="M543 148v-143q-63 -20 -126 -20q-164 0 -273.5 106.5t-109.5 280.5q0 168 110.5 275.5t272.5 107.5q73 0 126 -20v-142q-56 34 -125 34q-107 0 -177 -73.5t-70 -184.5q0 -112 69.5 -184t173.5 -72q82 0 129 35z" />
    <glyph glyph-name="Ccedilla.alt01" unicode="&#xe01f;" horiz-adv-x="577" 
d="M344 -125l-49 19l43 98q-143 28 -223.5 131t-80.5 249q0 170 110 276.5t273 106.5q73 0 126 -20v-142q-53 34 -125 34q-108 0 -177.5 -73t-69.5 -185q0 -111 69 -183.5t174 -72.5q82 0 129 35v-143q-63 -20 -131 -20q-13 0 -24 1l-18 -41q16 2 25 2q40 0 66.5 -28
t26.5 -72t-28 -71t-72 -27q-41 0 -69 25.5t-31 61.5h53q3 -17 16 -27t31 -10q21 0 33.5 13.5t12.5 34.5t-13 35.5t-34 14.5q-30 0 -43 -22z" />
    <glyph glyph-name="E.alt01" unicode="&#xe024;" horiz-adv-x="577" 
d="M543 148v-143q-63 -20 -126 -20q-166 0 -274.5 108t-108.5 279q0 167 110 275t273 108q73 0 126 -20v-142q-49 34 -125 34q-90 0 -157 -54t-83 -142h353v-128h-353q21 -88 85.5 -139t151.5 -51q84 0 128 35z" />
    <glyph glyph-name="Eacute.alt01" unicode="&#xe025;" horiz-adv-x="577" 
d="M543 148v-143q-63 -20 -126 -20q-166 0 -274.5 108t-108.5 279q0 167 110 275t273 108q73 0 126 -20v-142q-49 34 -125 34q-90 0 -157 -54t-83 -142h353v-128h-353q21 -88 85.5 -139t151.5 -51q84 0 128 35zM532 904l-226 -125l-53 92l222 135z" />
    <glyph glyph-name="Egrave.alt01" unicode="&#xe026;" horiz-adv-x="577" 
d="M543 148v-143q-63 -20 -126 -20q-166 0 -274.5 108t-108.5 279q0 167 110 275t273 108q73 0 126 -20v-142q-49 34 -125 34q-90 0 -157 -54t-83 -142h353v-128h-353q21 -88 85.5 -139t151.5 -51q84 0 128 35zM434 788l-226 125l57 102l222 -135z" />
    <glyph glyph-name="Ecircumflex.alt01" unicode="&#xe027;" horiz-adv-x="577" 
d="M543 148v-143q-63 -20 -126 -20q-166 0 -274.5 108t-108.5 279q0 167 110 275t273 108q73 0 126 -20v-142q-49 34 -125 34q-90 0 -157 -54t-83 -142h353v-128h-353q21 -88 85.5 -139t151.5 -51q84 0 128 35zM569 804h-131l-80 67l-80 -67h-133l170 154h88z" />
    <glyph glyph-name="Edieresis.alt01" unicode="&#xe028;" horiz-adv-x="577" 
d="M543 148v-143q-63 -20 -126 -20q-166 0 -274.5 108t-108.5 279q0 167 110 275t273 108q73 0 126 -20v-142q-49 34 -125 34q-90 0 -157 -54t-83 -142h353v-128h-353q21 -88 85.5 -139t151.5 -51q84 0 128 35zM318 808h-126v142h126v-142zM534 808h-126v142h126v-142z" />
    <glyph glyph-name="E.alt02" unicode="&#xe02e;" horiz-adv-x="840" 
d="M803 303h-624q22 -85 89.5 -137.5t151.5 -52.5q64 0 121.5 32.5t90.5 88.5h151q-44 -113 -143.5 -181t-219.5 -68q-161 0 -274 113t-113 271q0 159 112.5 272.5t273.5 113.5q160 0 274 -113t114 -275q0 -39 -4 -64zM177 431h485q-20 85 -87.5 140.5t-155.5 55.5
q-84 0 -153 -56.5t-89 -139.5z" />
    <glyph glyph-name="Eacute.alt02" unicode="&#xe02f;" horiz-adv-x="840" 
d="M803 303h-624q22 -85 89.5 -137.5t151.5 -52.5q64 0 121.5 32.5t90.5 88.5h151q-44 -113 -143.5 -181t-219.5 -68q-161 0 -274 113t-113 271q0 159 112.5 272.5t273.5 113.5q160 0 274 -113t114 -275q0 -39 -4 -64zM177 431h485q-20 85 -87.5 140.5t-155.5 55.5
q-84 0 -153 -56.5t-89 -139.5zM575 899l-226 -125l-53 92l222 135z" />
    <glyph glyph-name="Egrave.alt02" unicode="&#xe030;" horiz-adv-x="840" 
d="M803 303h-624q22 -85 89.5 -137.5t151.5 -52.5q64 0 121.5 32.5t90.5 88.5h151q-44 -113 -143.5 -181t-219.5 -68q-161 0 -274 113t-113 271q0 159 112.5 272.5t273.5 113.5q160 0 274 -113t114 -275q0 -39 -4 -64zM177 431h485q-20 85 -87.5 140.5t-155.5 55.5
q-84 0 -153 -56.5t-89 -139.5zM466 783l-226 125l57 102l222 -135z" />
    <glyph glyph-name="Ecircumflex.alt02" unicode="&#xe031;" horiz-adv-x="840" 
d="M803 303h-624q22 -85 89.5 -137.5t151.5 -52.5q64 0 121.5 32.5t90.5 88.5h151q-44 -113 -143.5 -181t-219.5 -68q-161 0 -274 113t-113 271q0 159 112.5 272.5t273.5 113.5q160 0 274 -113t114 -275q0 -39 -4 -64zM177 431h485q-20 85 -87.5 140.5t-155.5 55.5
q-84 0 -153 -56.5t-89 -139.5zM622 798h-131l-80 67l-80 -67h-133l170 154h88z" />
    <glyph glyph-name="Edieresis.alt02" unicode="&#xe032;" horiz-adv-x="840" 
d="M803 303h-624q22 -85 89.5 -137.5t151.5 -52.5q64 0 121.5 32.5t90.5 88.5h151q-44 -113 -143.5 -181t-219.5 -68q-161 0 -274 113t-113 271q0 159 112.5 272.5t273.5 113.5q160 0 274 -113t114 -275q0 -39 -4 -64zM177 431h485q-20 85 -87.5 140.5t-155.5 55.5
q-84 0 -153 -56.5t-89 -139.5zM369 801h-126v142h126v-142zM585 801h-126v142h126v-142z" />
    <glyph glyph-name="K.alt01" unicode="&#xe038;" horiz-adv-x="627" 
d="M627 0h-168l-180 280l-71 -92v-188h-137v740h137v-356h2l249 356h166l-262 -347z" />
    <glyph glyph-name="K.alt02" unicode="&#xe03a;" horiz-adv-x="631" 
d="M208 0h-137v740h137v-740zM631 0h-168l-255 372l257 368h160l-264 -368z" />
    <glyph glyph-name="M.alt01" unicode="&#xe03c;" horiz-adv-x="1175" 
d="M1105 0h-137v479h-2l-340 -479h-134v486h-2l-339 -486h-165l530 740h113v-511h2l367 511h107v-740z" />
    <glyph glyph-name="M.alt02" unicode="&#xe03d;" horiz-adv-x="1166" 
d="M1180 0h-165l-339 486h-2v-486h-134l-340 479h-2v-479h-137v740h107l367 -511h2v511h113z" />
    <glyph glyph-name="M.alt03" unicode="&#xe03e;" horiz-adv-x="1138" 
d="M1073 0h-137v433q0 99 -34 146.5t-108 47.5q-72 0 -113 -51.5t-41 -138.5v-437h-137v433q0 101 -33.5 147.5t-107.5 46.5q-72 0 -113 -51.5t-41 -138.5v-437h-137v740h133v-78h3q25 43 73 68t112 25q67 0 119 -30.5t83 -88.5h3q74 119 219 119q122 0 189.5 -82.5
t67.5 -221.5v-451z" />
    <glyph glyph-name="N.alt01" unicode="&#xe03f;" horiz-adv-x="732" 
d="M667 0h-137v432q0 92 -39 143.5t-118 51.5q-73 0 -119 -53.5t-46 -136.5v-437h-137v740h133v-78h3q57 93 198 93q116 0 189 -77.5t73 -222.5v-455z" />
    <glyph glyph-name="Ntilde.alt01" unicode="&#xe040;" horiz-adv-x="732" 
d="M667 0h-137v432q0 92 -39 143.5t-118 51.5q-73 0 -119 -53.5t-46 -136.5v-437h-137v740h133v-78h3q57 93 198 93q116 0 189 -77.5t73 -222.5v-455zM519 934l46 -88q-54 -37 -109 -37q-23 0 -81 14t-82 14q-42 0 -77 -26l-46 90q52 36 106 36q25 0 83 -14t82 -14
q48 0 78 25z" />
    <glyph glyph-name="U.alt01" unicode="&#xe044;" horiz-adv-x="731" 
d="M661 0h-133v78h-3q-26 -44 -79 -68.5t-119 -24.5q-116 0 -189 77.5t-73 223.5v454h137v-432q0 -93 39 -144t118 -51q74 0 119.5 53.5t45.5 136.5v437h137v-740z" />
    <glyph glyph-name="Uacute.alt01" unicode="&#xe045;" horiz-adv-x="731" 
d="M661 0h-133v78h-3q-26 -44 -79 -68.5t-119 -24.5q-116 0 -189 77.5t-73 223.5v454h137v-432q0 -93 39 -144t118 -51q74 0 119.5 53.5t45.5 136.5v437h137v-740zM541 893l-226 -125l-53 92l222 135z" />
    <glyph glyph-name="Ugrave.alt01" unicode="&#xe046;" horiz-adv-x="731" 
d="M661 0h-133v78h-3q-26 -44 -79 -68.5t-119 -24.5q-116 0 -189 77.5t-73 223.5v454h137v-432q0 -93 39 -144t118 -51q74 0 119.5 53.5t45.5 136.5v437h137v-740zM413 758l-226 125l57 102l222 -135z" />
    <glyph glyph-name="Ucircumflex.alt01" unicode="&#xe047;" horiz-adv-x="731" 
d="M661 0h-133v78h-3q-26 -44 -79 -68.5t-119 -24.5q-116 0 -189 77.5t-73 223.5v454h137v-432q0 -93 39 -144t118 -51q74 0 119.5 53.5t45.5 136.5v437h137v-740zM569 798h-131l-80 67l-80 -67h-133l170 154h88z" />
    <glyph glyph-name="Udieresis.alt01" unicode="&#xe048;" horiz-adv-x="731" 
d="M661 0h-133v78h-3q-26 -44 -79 -68.5t-119 -24.5q-116 0 -189 77.5t-73 223.5v454h137v-432q0 -93 39 -144t118 -51q74 0 119.5 53.5t45.5 136.5v437h137v-740zM319 801h-126v142h126v-142zM535 801h-126v142h126v-142z" />
    <glyph glyph-name="V.alt02" unicode="&#xe04f;" horiz-adv-x="656" 
d="M190 0h-119v740h137v-487h2l332 487h169z" />
    <glyph glyph-name="V.alt01" unicode="&#xe050;" horiz-adv-x="655" 
d="M585 0h-119l-521 740h169l332 -487h2v487h137v-740z" />
    <glyph glyph-name="W.alt02" unicode="&#xe051;" horiz-adv-x="1125" 
d="M660 0h-122v491h-2l-334 -491h-131v740h137v-504h2l343 504h122v-491h2l338 491h165z" />
    <glyph glyph-name="W.alt01" unicode="&#xe056;" horiz-adv-x="1124" 
d="M1054 0h-131l-334 491h-2v-491h-122l-520 740h165l338 -491h2v491h122l343 -504h2v504h137v-740z" />
    <glyph glyph-name="c.alt01" unicode="&#xe05b;" horiz-adv-x="495" 
d="M465 171v-157q-52 -32 -143 -32q-120 0 -202.5 83t-82.5 213q0 132 82.5 214t202.5 82q85 0 143 -33v-152q-53 63 -128 63q-76 0 -121.5 -47.5t-45.5 -126.5q0 -78 46 -126t121 -48q73 0 128 67z" />
    <glyph glyph-name="ccedilla.alt01" unicode="&#xe05c;" horiz-adv-x="495" 
d="M274 -125l-49 19l41 93q-103 21 -166 100.5t-63 190.5q0 132 82.5 214t202.5 82q85 0 143 -33v-152q-53 63 -128 63q-76 0 -121.5 -47.5t-45.5 -126.5q0 -78 46 -126t121 -48q73 0 128 67v-157q-52 -32 -145 -32h-4l-16 -37l24 2q40 0 67 -26.5t27 -73.5q0 -43 -28 -70.5
t-72 -27.5q-40 0 -69 26t-31 61h53q3 -17 16 -27t31 -10q20 0 33 13.5t13 34.5t-14 35.5t-33 14.5q-30 0 -43 -22z" />
    <glyph glyph-name="e.alt01" unicode="&#xe061;" horiz-adv-x="610" 
d="M480 185v-154q-61 -49 -158 -49q-116 0 -203.5 83.5t-87.5 206.5q0 134 83.5 219.5t207.5 85.5q84 0 154 -45.5t104 -120.5l-347 -279q35 -28 93 -28q80 0 154 81zM170 219l250 201q-32 35 -93 35q-68 0 -116.5 -49t-48.5 -122q0 -32 8 -65z" />
    <glyph glyph-name="eacute.alt01" unicode="&#xe062;" horiz-adv-x="610" 
d="M480 185v-154q-61 -49 -158 -49q-116 0 -203.5 83.5t-87.5 206.5q0 134 83.5 219.5t207.5 85.5q84 0 154 -45.5t104 -120.5l-347 -279q35 -28 93 -28q80 0 154 81zM170 219l250 201q-32 35 -93 35q-68 0 -116.5 -49t-48.5 -122q0 -32 8 -65zM452 719l-226 -125l-53 92
l222 135z" />
    <glyph glyph-name="egrave.alt01" unicode="&#xe063;" horiz-adv-x="610" 
d="M480 185v-154q-61 -49 -158 -49q-116 0 -203.5 83.5t-87.5 206.5q0 134 83.5 219.5t207.5 85.5q84 0 154 -45.5t104 -120.5l-347 -279q35 -28 93 -28q80 0 154 81zM170 219l250 201q-32 35 -93 35q-68 0 -116.5 -49t-48.5 -122q0 -32 8 -65zM365 603l-226 125l57 102
l222 -135z" />
    <glyph glyph-name="ecircumflex.alt01" unicode="&#xe064;" horiz-adv-x="610" 
d="M480 185v-154q-61 -49 -158 -49q-116 0 -203.5 83.5t-87.5 206.5q0 134 83.5 219.5t207.5 85.5q84 0 154 -45.5t104 -120.5l-347 -279q35 -28 93 -28q80 0 154 81zM170 219l250 201q-32 35 -93 35q-68 0 -116.5 -49t-48.5 -122q0 -32 8 -65zM520 632h-131l-80 67l-80 -67
h-133l170 154h88z" />
    <glyph glyph-name="edieresis.alt01" unicode="&#xe065;" horiz-adv-x="610" 
d="M480 185v-154q-61 -49 -158 -49q-116 0 -203.5 83.5t-87.5 206.5q0 134 83.5 219.5t207.5 85.5q84 0 154 -45.5t104 -120.5l-347 -279q35 -28 93 -28q80 0 154 81zM170 219l250 201q-32 35 -93 35q-68 0 -116.5 -49t-48.5 -122q0 -32 8 -65zM256 635h-126v142h126v-142z
M472 635h-126v142h126v-142z" />
    <glyph glyph-name="f.alt01" unicode="&#xe06b;" horiz-adv-x="248" 
d="M195 0h-133v437h-47v118h47q6 77 56 131t130 54h32v-131h-14q-43 0 -57 -19.5t-14 -50.5v-539z" />
    <glyph glyph-name="f.alt02" unicode="&#xe06c;" horiz-adv-x="272" 
d="M187 0h-133v552q0 67 50 127.5t128 60.5h33v-131h-13q-24 0 -38.5 -9t-19 -19t-7.5 -26h78v-118h-78v-437z" />
    <glyph glyph-name="k.alt01" unicode="&#xe06d;" horiz-adv-x="595" 
d="M586 0h-163l-147 203l-63 -80v-123h-133v740h133v-446h2l182 261h161l-196 -245z" />
    <glyph glyph-name="k.alt02" unicode="&#xe06f;" horiz-adv-x="574" 
d="M213 0h-133v740h133v-740zM565 0h-168l-182 287l171 268h153l-184 -262z" />
    <glyph glyph-name="t.alt01" unicode="&#xe071;" horiz-adv-x="267" 
d="M234 0h-133v437h-80v118h80v185h133v-740z" />
    <glyph glyph-name="t.alt02" unicode="&#xe075;" horiz-adv-x="287" 
d="M186 0h-133v740h133v-185h80v-118h-80v-437z" />
    <glyph glyph-name="v.alt02" unicode="&#xe079;" horiz-adv-x="523" 
d="M169 0h-116v555h133v-315h2l219 315h158z" />
    <glyph glyph-name="v.alt01" unicode="&#xe07a;" horiz-adv-x="523" 
d="M470 0h-116l-396 555h158l219 -315h2v315h133v-555z" />
    <glyph glyph-name="w.alt02" unicode="&#xe07b;" horiz-adv-x="870" 
d="M516 0h-116v324l-231 -324h-116v555h133v-316h2l219 316h126v-315h2l219 315h158z" />
    <glyph glyph-name="w.alt01" unicode="&#xe080;" horiz-adv-x="870" 
d="M817 0h-116l-231 324v-324h-116l-396 555h158l219 -315h2v315h126l219 -316h2v316h133v-555z" />
    <glyph glyph-name="y.alt01" unicode="&#xe085;" horiz-adv-x="532" 
d="M59 -185h-158l152 217v523h133v-340h2l228 340h158z" />
    <glyph glyph-name="yacute.alt01" unicode="&#xe086;" horiz-adv-x="532" 
d="M59 -185h-158l152 217v523h133v-340h2l228 340h158zM508 719l-226 -125l-53 92l222 135z" />
    <glyph glyph-name="ydieresis.alt01" unicode="&#xe087;" horiz-adv-x="532" 
d="M59 -185h-158l152 217v523h133v-340h2l228 340h158zM252 635h-126v142h126v-142zM468 635h-126v142h126v-142z" />
    <glyph glyph-name="C_A" unicode="&#xe08a;" horiz-adv-x="1012" 
d="M942 0h-137v247h-172l-91 -119q56 16 96 78h153q-47 -102 -143 -161.5t-218 -59.5q-160 0 -276 112t-116 275q0 159 112 271t271 112q177 0 291 -107l-81 -109q-87 88 -209 88q-103 0 -175 -74.5t-72 -180.5q0 -89 57.5 -161.5t144.5 -93.5l451 623h114v-740zM805 364
v132h-2l-90 -132h92z" />
    <glyph glyph-name="C_O.alt01" unicode="&#xe0a1;" horiz-adv-x="780" 
d="M606 206h156q-40 -98 -137 -159.5t-208 -61.5q-158 0 -270.5 113.5t-112.5 273.5q0 157 111 270t272 113q114 0 208.5 -61t140.5 -165h-156q-80 98 -194 98q-102 0 -173.5 -77t-71.5 -179q0 -107 72 -182.5t173 -75.5q55 0 105 24.5t85 68.5zM417 135q-93 0 -158.5 69
t-65.5 166q0 96 66.5 165.5t157.5 69.5q92 0 158 -68.5t66 -166.5q0 -95 -66.5 -165t-157.5 -70zM417 250q44 0 74.5 35.5t30.5 82.5q0 48 -31 84t-74 36q-45 0 -75 -34.5t-30 -84.5t30.5 -84.5t74.5 -34.5z" />
    <glyph glyph-name="C_O" unicode="&#xe0a2;" horiz-adv-x="1181" 
d="M588 25q-82 -40 -168 -40q-156 0 -271 113.5t-115 274.5q0 153 112 267.5t271 114.5q91 0 172 -40q79 40 172 40q158 0 272.5 -112t114.5 -275q0 -157 -113 -270t-274 -113q-94 0 -173 40zM467 118q-93 107 -93 250q0 146 93 253q-28 6 -55 6q-95 0 -168 -76t-73 -180
q0 -103 74 -180.5t172 -77.5q23 0 50 5zM585 187l18 19h159q-18 -45 -54 -87q26 -6 53 -6q104 0 177 76t73 180q0 107 -73.5 182.5t-177.5 75.5q-26 0 -51 -6q32 -37 57 -92h-156q-13 15 -24 25q-75 -78 -75 -185q0 -106 74 -182z" />
    <glyph glyph-name="D_E" unicode="&#xe0ba;" horiz-adv-x="1096" 
d="M1035 0h-398v240h-2q-43 -119 -134.5 -179.5t-260.5 -60.5h-177v740h175q163 0 260 -60t137 -182h2v242h398v-128h-261v-181h250v-128h-250v-175h261v-128zM200 128h44q145 0 213 73q63 67 63 167q0 97 -65 168q-70 76 -215 76h-40v-484z" />
    <glyph glyph-name="D_I" unicode="&#xe0c8;" horiz-adv-x="852" 
d="M782 0h-137v240h-2q-41 -119 -134 -179.5t-260 -60.5h-178v740h175q165 0 261 -60t136 -182h2v242h137v-740zM208 128h44q145 0 213 73q63 67 63 167q0 97 -65 168q-70 76 -215 76h-40v-484z" />
    <glyph glyph-name="E_A" unicode="&#xe0d5;" horiz-adv-x="930" 
d="M860 0h-137v191h-210l-44 -63h67v-128h-465v740h371v-128h-234v-171h226v-128h-226v-185h97l431 612h124v-740zM723 319v177h-2l-120 -177h122z" />
    <glyph glyph-name="F_A" unicode="&#xe0de;" horiz-adv-x="900" 
d="M830 0h-137v232h-182l-160 -232h-280v740h386v-128h-249v-252h230l267 380h125v-740zM693 360v136h-2l-93 -136h95zM208 33l140 199h-140v-199z" />
    <glyph glyph-name="F_R" unicode="&#xe0e7;" horiz-adv-x="734" 
d="M688 0h-172l-134 183v-183h-134v309h-40v-309h-137v740h399v-128h-262v-181h40v150h211q114 0 174.5 -62.5t60.5 -138.5q0 -68 -42 -124.5t-108 -69.5zM470 309h-88v-31h69q53 0 79.5 26t26.5 70q0 35 -26.5 62t-75.5 27h-73v-32h88v-122z" />
    <glyph glyph-name="G_A" unicode="&#xe0e9;" horiz-adv-x="1013" 
d="M943 0h-137v249h-2q-44 -123 -144.5 -193t-240.5 -70q-162 0 -277 112t-115 272q0 156 114.5 270.5t273.5 114.5q155 0 264 -94l-80 -118q-64 84 -187 84q-106 0 -177 -78t-71 -179q0 -90 57.5 -162.5t143.5 -88.5l89 130h-120v128h208l249 363h152v-740zM806 377v173h-2
l-109 -173h111zM651 249h-34l-79 -116q34 15 67 48t46 68z" />
    <glyph glyph-name="G_O" unicode="&#xe0fc;" horiz-adv-x="1184" 
d="M595 23q-81 -38 -170 -38q-162 0 -280 111t-118 274q0 159 116 272t278 113q90 0 173 -39q81 39 170 39q159 0 273 -112.5t114 -274.5q0 -156 -112.5 -269.5t-274.5 -113.5q-87 0 -169 38zM396 249h-62v128h43q1 138 94 244q-23 6 -54 6q-110 0 -181.5 -77.5
t-71.5 -180.5q0 -102 72.5 -179t188.5 -77q26 0 46 4q-52 61 -75 132zM817 377v-11q0 -146 -95 -249q20 -4 42 -4q104 0 177 76t73 180q0 106 -73 182t-178 76q-25 0 -45 -4q44 -50 62 -100h-154q-12 18 -31 37q-77 -76 -81 -183h303zM652 249h-108q18 -35 54 -71
q37 35 54 71z" />
    <glyph glyph-name="H_T" unicode="&#xe10c;" horiz-adv-x="917" 
d="M610 0h-137v311h-265v-311h-137v740h137v-301h265v173h-137v128h274v-740zM777 0h-137v740h275v-128h-138v-612z" />
    <glyph glyph-name="I_C" unicode="&#xe10e;" horiz-adv-x="933" 
d="M756 206h159q-43 -101 -138 -161t-204 -60q-120 0 -219 69t-143 186h-2v-240h-137v740h137v-238h2q43 114 141.5 183.5t217.5 69.5q113 0 210 -62.5t139 -163.5h-156q-85 98 -198 98q-94 0 -167.5 -75.5t-73.5 -180.5q0 -102 73 -180t173 -78q102 0 186 93z" />
    <glyph glyph-name="K_A" unicode="&#xe124;" horiz-adv-x="880" 
d="M810 0h-137v220h-176l-27 -41l132 -179h-161l-48 64l-43 -64h-279v740h137v-323l221 323h154l-255 -371l57 -76l305 447h120v-740zM673 348v147h-2l-92 -147h94zM208 36l99 145l-99 134v-279z" />
    <glyph glyph-name="L_A" unicode="&#xe130;" horiz-adv-x="764" 
d="M694 0h-137v205h-200l-54 -77h131v-128h-363v740h137v-511h2l359 511h125v-740zM557 333v163h-2l-110 -163h112z" />
    <glyph glyph-name="L_A.alt01" unicode="&#xe141;" horiz-adv-x="834" 
d="M764 0h-137v205h-200l-54 -77h100v-128h-402v740h137v-611h2l429 611h125v-740zM627 333v163h-2l-110 -163h112z" />
    <glyph glyph-name="L_L" unicode="&#xe152;" horiz-adv-x="548" 
d="M513 0h-441v740h137v-612h304v-128zM513 152h-280v588h137v-460h143v-128z" />
    <glyph glyph-name="N_T" unicode="&#xe153;" horiz-adv-x="971" 
d="M672 0h-124l-338 490h-2v-490h-137v740h124l338 -490l2 1v361h-127v128h264v-740zM839 0h-137v740h267v-128h-130v-612z" />
    <glyph glyph-name="O_C" unicode="&#xe15b;" horiz-adv-x="1132" 
d="M955 206h159q-42 -99 -137.5 -160t-204.5 -61q-94 0 -175 43q-81 -43 -177 -43q-158 0 -272.5 111.5t-114.5 271.5q0 163 114.5 275t272.5 112q94 0 176 -42q81 42 173 42q111 0 207 -60.5t142 -165.5h-156q-85 98 -198 98q-26 0 -50 -6q93 -106 93 -253q0 -140 -92 -248
q26 -7 54 -7q106 0 186 93zM480 121q-94 110 -94 252q0 135 92 247q-24 7 -59 7q-103 0 -176 -76t-73 -182q0 -105 73.5 -180.5t176.5 -75.5q28 0 60 8zM597 189q73 73 73 180q0 109 -74 183q-73 -75 -73 -181q0 -105 74 -182z" />
    <glyph glyph-name="O_O" unicode="&#xe170;" horiz-adv-x="1193" 
d="M597 27q-83 -42 -177 -42q-158 0 -272.5 111.5t-114.5 271.5q0 163 114.5 275t272.5 112q94 0 176 -42q86 42 177 42q160 0 273.5 -113t113.5 -274q0 -159 -113.5 -271t-273.5 -112q-98 0 -176 42zM478 120q-92 108 -92 248q0 146 93 252q-27 7 -60 7q-103 0 -176 -76
t-73 -182q0 -104 73.5 -180t176.5 -76q28 0 58 7zM715 120q30 -7 58 -7q106 0 178 76t72 180q0 106 -73 182t-178 76q-31 0 -58 -7q93 -106 93 -252q0 -138 -92 -248zM596 188q74 74 74 181t-73 183q-74 -74 -74 -183q0 -105 73 -181z" />
    <glyph glyph-name="P_P" unicode="&#xe172;" horiz-adv-x="715" 
d="M380 0h-129v267h-42v-267h-137v740h215q217 0 262 -175q75 -22 112.5 -74t37.5 -123q0 -93 -70 -148t-183 -55h-66v-165zM251 388v188h151q-27 36 -110 36h-83v-224h42zM423 463h-43v-59q16 4 28 20t15 39zM380 271h69q48 0 80 26t32 72q0 36 -18 55q-12 -59 -55.5 -97
t-107.5 -46v-10z" />
    <glyph glyph-name="P_R" unicode="&#xe173;" horiz-adv-x="724" 
d="M675 0h-166l-127 178h-2v-178h-129v267h-42v-267h-137v740h215q217 0 262 -175q75 -22 112.5 -74t37.5 -122t-43.5 -122t-118.5 -68zM251 388v188h151q-27 36 -110 36h-83v-224h42zM423 463h-43v-59q16 4 28 20t15 39zM380 271h69q48 0 80 26t32 72q0 36 -18 55
q-12 -60 -55.5 -97.5t-107.5 -45.5v-10z" />
    <glyph glyph-name="R_A" unicode="&#xe174;" horiz-adv-x="1003" 
d="M943 0h-137v211h-181l-104 -152l44 -59h-251l43 61l-154 222h-2v-283h-137v740h254q113 0 182 -66.5t69 -164.5q0 -34 -10.5 -70t-32.5 -72t-64.5 -62t-98.5 -32l74 -99l397 566h109v-740zM806 328v144h-2l-99 -144h101zM201 386h100q59 0 95 30t36 84q0 52 -37 82
t-92 30h-102v-226z" />
    <glyph glyph-name="S_S" unicode="&#xe185;" horiz-adv-x="815" 
d="M781 544h-140q-8 83 -83 83q-33 0 -54.5 -21.5t-21.5 -54.5q0 -38 23 -60t85 -41q101 -31 149.5 -87.5t48.5 -141.5q0 -105 -67 -170.5t-173 -65.5q-81 0 -143 49q-67 -49 -152 -49q-94 0 -165.5 62.5t-75.5 164.5h144q5 -47 31.5 -73t66.5 -26q43 0 72.5 26.5t29.5 67.5
q0 38 -20.5 61.5t-66.5 41.5q-44 17 -70.5 28.5t-58.5 32t-49.5 43t-29.5 57t-12 77.5q0 92 61 149.5t156 57.5q83 0 145 -57q62 57 151 57q85 0 151 -59t68 -152zM398 397q-52 59 -52 137q0 43 -22.5 68t-62.5 25q-33 0 -54 -20t-21 -52q0 -38 28 -64t92 -51q66 -25 92 -43
zM483 146q21 -33 76 -33q39 0 65.5 26t26.5 65q0 45 -25.5 69t-96.5 50q-62 23 -90 41q54 -56 54 -143q0 -27 -10 -75z" />
    <glyph glyph-name="S_T" unicode="&#xe186;" horiz-adv-x="852" 
d="M686 0h-137v612h-73q13 -35 13 -68h-140q-1 37 -22 60t-52 23q-35 0 -56.5 -22t-21.5 -55q0 -37 24 -61t85 -47q99 -38 145 -93.5t46 -138.5q0 -96 -62.5 -160.5t-165.5 -64.5q-106 0 -175.5 62.5t-70.5 164.5h142q0 -44 27.5 -71.5t71.5 -27.5t70 25.5t26 63.5
q0 46 -26 72.5t-90 49.5q-99 36 -141.5 91.5t-42.5 131.5q0 90 63 149t154 59q83 0 135 -51v36h412v-128h-138v-612z" />
    <glyph glyph-name="S_T.alt01" unicode="&#xe18e;" horiz-adv-x="769" 
d="M629 0h-137v185h-2q-10 -90 -76 -145t-161 -55q-94 0 -165.5 62t-75.5 165h144q5 -47 31.5 -73t66.5 -26q43 0 72.5 26.5t29.5 67.5q0 40 -21 63t-65 39q-36 13 -52.5 20l-45.5 20t-42.5 23.5t-32.5 28t-27.5 35.5t-15 43.5t-6.5 55.5q0 94 60.5 149.5t170.5 55.5h46
v-128h-62q-33 0 -55.5 -20t-22.5 -50q0 -35 22 -56.5t81 -39.5q106 -33 149 -76.5t53 -112.5h2v355h-137v128h412v-128h-138v-612z" />
    <glyph glyph-name="T_H" unicode="&#xe196;" horiz-adv-x="917" 
d="M277 0h-137v612h-138v128h275v-740zM846 0h-137v311h-265v-311h-137v740h274v-128h-137v-173h265v301h137v-740z" />
    <glyph glyph-name="T_T" unicode="&#xe198;" horiz-adv-x="813" 
d="M673 0h-137v612h-256v-612h-137v612h-137v128h805v-128h-138v-612z" />
    <glyph glyph-name="T_T.alt01" unicode="&#xe199;" horiz-adv-x="587" 
d="M280 0h-137v612h-137v128h274v-740zM447 0h-137v740h275v-128h-138v-612z" />
    <glyph glyph-name="T_U" unicode="&#xe19a;" horiz-adv-x="868" 
d="M277 0h-137v612h-138v128h275v-740zM666 255v485h137v-475q0 -139 -72 -209.5t-180 -70.5q-102 0 -173 70t-71 195v490h271v-128h-134v-357q0 -67 29.5 -104.5t82.5 -37.5t81.5 37.5t28.5 104.5z" />
    <glyph glyph-name="T_h" unicode="&#xe1a5;" horiz-adv-x="963" 
d="M910 0h-133v289q0 85 -28 124t-86 39q-112 0 -112 -165v-287h-133v612h-138v-612h-137v612h-137v128h545v-224q61 58 145 58q21 0 45.5 -5.5t55.5 -21.5t55 -41t41 -69t17 -100v-337z" />
    <glyph glyph-name="U_T" unicode="&#xe1a9;" horiz-adv-x="868" 
d="M424 255v357h-134v128h271v-491q0 -124 -71 -194t-173 -70q-108 0 -180 70.5t-72 209.5v475h137v-485q0 -67 28.5 -104.5t81.5 -37.5t82.5 37.5t29.5 104.5zM728 0h-137v740h275v-128h-138v-612z" />
    <glyph glyph-name="c_t" unicode="&#xe1b8;" horiz-adv-x="709" 
d="M628 0h-133v437h-65v118h65v185h133v-185h80v-118h-80v-437zM465 162v-148q-56 -32 -139 -32q-123 0 -206 82.5t-83 204.5q0 129 85.5 207.5t209.5 78.5h68v-118h-55q-75 0 -125 -44.5t-50 -120.5q0 -74 46 -121t121 -47q79 0 128 58z" />
    <glyph glyph-name="o_o" unicode="&#xe1c1;" horiz-adv-x="893" 
d="M449 10q-68 -28 -128 -28q-122 0 -209 87.5t-87 207.5q0 124 87.5 210.5t208.5 86.5q66 0 127 -29q60 29 126 29q121 0 207.5 -86t86.5 -209q0 -129 -85 -213t-209 -84q-61 0 -125 28zM335 105q-57 78 -57 172q0 98 56 174q-2 1 -6 1q-71 0 -120.5 -50.5t-49.5 -124.5
q0 -73 47.5 -123t117.5 -50q7 0 12 1zM562 104h8q74 0 119.5 51t45.5 121q0 73 -48 124.5t-116 51.5q-6 0 -11 -1q55 -74 55 -172q0 -100 -53 -175zM446 168q36 49 36 108t-36 110q-35 -48 -35 -109q0 -62 35 -109z" />
    <glyph glyph-name="s_s" unicode="&#xe1c3;" horiz-adv-x="695" 
d="M661 404h-130q-10 48 -53 48q-22 0 -36.5 -14.5t-14.5 -33.5t16 -31.5t73 -29.5q88 -25 124 -65t36 -102q0 -85 -56.5 -139.5t-137.5 -54.5q-78 0 -133 41q-53 -41 -122 -41q-85 0 -144.5 50.5t-63.5 142.5h136q15 -71 73 -71q27 0 43.5 16.5t16.5 39.5q0 27 -22 42
t-82 34q-145 45 -145 166q0 75 56.5 123.5t130.5 48.5q70 0 124 -48q56 48 130 48q71 0 125.5 -49t55.5 -121zM312 326q-18 35 -18 71q0 26 -20.5 40.5t-50.5 14.5q-21 0 -36 -12.5t-15 -30.5q0 -14 4.5 -23t18 -16.5t25.5 -12t41 -14t51 -17.5zM421 162l-2 -16
q18 -42 64 -42q27 0 43.5 16.5t16.5 39.5q0 14 -3.5 22.5t-24 22t-61.5 26.5l-23.5 7.5t-24.5 8.5q15 -32 15 -71v-14z" />
    <glyph glyph-name="s_t" unicode="&#xe1c4;" horiz-adv-x="666" 
d="M585 0h-133v437h-50l2 -13q2 -13 2 -20h-130q-10 48 -53 48q-22 0 -36.5 -14.5t-14.5 -33.5q0 -21 16 -33t73 -28q89 -25 124.5 -65t35.5 -102q0 -85 -56.5 -139.5t-137.5 -54.5q-86 0 -145 50.5t-63 142.5h136q15 -71 73 -71q26 0 43 16.5t17 39.5q0 26 -21.5 41
t-81.5 34q-146 45 -146 167q0 74 56 123t130 49q50 0 94.5 -26t67.5 -70v77h65v185h133v-185h80v-118h-80v-437z" />
    <glyph glyph-name="s_t" unicode="&#xfb06;" horiz-adv-x="666" 
d="M585 0h-133v437h-50l2 -13q2 -13 2 -20h-130q-10 48 -53 48q-22 0 -36.5 -14.5t-14.5 -33.5q0 -21 16 -33t73 -28q89 -25 124.5 -65t35.5 -102q0 -85 -56.5 -139.5t-137.5 -54.5q-86 0 -145 50.5t-63 142.5h136q15 -71 73 -71q26 0 43 16.5t17 39.5q0 26 -21.5 41
t-81.5 34q-146 45 -146 167q0 74 56 123t130 49q50 0 94.5 -26t67.5 -70v77h65v185h133v-185h80v-118h-80v-437z" />
    <glyph glyph-name="s_t.alt01" unicode="&#xe1cc;" horiz-adv-x="633" 
d="M552 0h-133v138h-2q-12 -71 -65.5 -113.5t-124.5 -42.5q-85 0 -144.5 50.5t-63.5 142.5h136q15 -71 73 -71q27 0 43.5 16.5t16.5 40.5q0 27 -19.5 40.5t-75.5 29.5q-77 23 -112.5 61.5t-35.5 100.5q0 73 51.5 117.5t130.5 44.5h97v-118h-97q-22 0 -35.5 -12t-13.5 -30
q0 -21 19 -34t80 -27q124 -29 140 -121h2v224h-65v118h65v185h133v-185h80v-118h-80v-437z" />
    <glyph glyph-name="t_t" unicode="&#xe1d4;" horiz-adv-x="556" 
d="M475 0h-133v437h-123v-437h-133v437h-65v118h65v185h133v-185h123v185h133v-185h80v-118h-80v-437z" />
    <glyph glyph-name="t_t.alt01" unicode="&#xe1d6;" horiz-adv-x="478" 
d="M234 0h-133v437h-80v118h80v185h133v-740zM397 0h-133v740h133v-185h80v-118h-80v-437z" />
    <glyph glyph-name="zero.numerator" unicode="&#xe1da;" horiz-adv-x="382" 
d="M350 595v-144q0 -75 -43.5 -119.5t-115.5 -44.5q-69 0 -114 46t-45 116v135q0 71 46 118t114 47q67 0 112.5 -46t45.5 -108zM254 442v152q0 29 -16.5 48.5t-47.5 19.5q-29 0 -45.5 -18.5t-16.5 -49.5v-150q0 -30 17 -50t46 -20t46 19.5t17 48.5z" />
    <glyph glyph-name="one.numerator" unicode="&#xe1db;" horiz-adv-x="248" 
d="M176 296h-96v358h-55v86h151v-444z" />
    <glyph glyph-name="two.numerator" unicode="&#xe1dc;" horiz-adv-x="336" 
d="M322 296h-304v81l159 147q49 45 49 80q0 26 -16.5 42.5t-42.5 16.5q-58 0 -58 -80h-95q-1 3 -1 16q0 65 46.5 107.5t107.5 42.5q63 0 109 -43t46 -104q0 -73 -87 -149l-80 -71h167v-86z" />
    <glyph glyph-name="three.numerator" unicode="&#xe1dd;" horiz-adv-x="336" 
d="M139 503h-6v86h11q31 0 43 9t12 30q0 35 -34 35q-28 0 -28 -36h-96q3 55 38 88.5t88 33.5q51 0 89.5 -36.5t38.5 -85.5q0 -48 -34 -76q32 -14 49.5 -44.5t17.5 -69.5q0 -63 -47.5 -106.5t-114.5 -43.5q-64 0 -109 41.5t-49 106.5h96q2 -28 20 -45t45 -17t45 18.5t18 45.5
q0 34 -21.5 50t-71.5 16z" />
    <glyph glyph-name="four.numerator" unicode="&#xe1de;" horiz-adv-x="378" 
d="M311 296h-90v65h-198v70l212 309h76v-297h49v-82h-49v-65zM221 443v159h-2l-97 -159h99z" />
    <glyph glyph-name="five.numerator" unicode="&#xe1df;" horiz-adv-x="359" 
d="M301 654h-155l-12 -72q26 19 62 19q64 0 104.5 -42.5t40.5 -108.5q0 -71 -45.5 -117t-116.5 -46q-63 0 -108.5 40.5t-54.5 106.5h93q14 -61 69 -61q31 0 49 20t18 53q0 30 -18.5 49.5t-48.5 19.5q-40 0 -66 -32l-77 18l42 239h224v-86z" />
    <glyph glyph-name="six.numerator" unicode="&#xe1e0;" horiz-adv-x="355" 
d="M175 601l1 -1q7 6 30 6q58 0 98.5 -44.5t40.5 -106.5q0 -71 -47 -119.5t-118 -48.5q-70 0 -118.5 47.5t-48.5 115.5q0 58 42 120l112 170h113zM179 373q31 0 50.5 20.5t19.5 54.5q0 33 -19.5 55t-51.5 22q-30 0 -50 -20.5t-20 -53.5q0 -34 19.5 -56t51.5 -22z" />
    <glyph glyph-name="seven.numerator" unicode="&#xe1e1;" horiz-adv-x="317" 
d="M137 296h-103l160 357h-176v87h277v-83z" />
    <glyph glyph-name="eight.numerator" unicode="&#xe1e2;" horiz-adv-x="354" 
d="M276 540q62 -38 62 -108q0 -62 -47 -103.5t-113 -41.5q-68 0 -115 42t-47 102q0 71 61 110q-38 33 -38 80q0 52 40.5 90t98.5 38q57 0 97 -37.5t40 -90.5q0 -49 -39 -81zM227 624q0 18 -12.5 30.5t-36.5 12.5q-23 0 -37 -13t-14 -33q0 -19 13.5 -32t36.5 -13
q24 0 37 13.5t13 34.5zM245 433q0 29 -18.5 47t-50.5 18q-28 0 -47 -18.5t-19 -46.5q0 -25 19 -42.5t48 -17.5q30 0 49 17.5t19 42.5z" />
    <glyph glyph-name="nine.numerator" unicode="&#xe1e3;" horiz-adv-x="355" 
d="M188 296h-113l105 139l-1 1q-7 -6 -30 -6q-59 0 -99 44.5t-40 106.5q0 71 47 119.5t118 48.5t119 -48t48 -115q0 -56 -36 -112zM177 511q31 0 50.5 20.5t19.5 53.5q0 35 -19.5 56.5t-52.5 21.5q-30 0 -49.5 -21t-19.5 -54q0 -34 19.5 -55.5t51.5 -21.5z" />
    <glyph glyph-name="zero.denominator" unicode="&#xe1e4;" horiz-adv-x="382" 
d="M350 299v-144q0 -75 -43.5 -119.5t-115.5 -44.5q-69 0 -114 46t-45 116v135q0 71 46 118t114 47q67 0 112.5 -46t45.5 -108zM254 146v152q0 29 -16.5 48.5t-47.5 19.5q-29 0 -45.5 -18.5t-16.5 -49.5v-150q0 -30 17 -50t46 -20t46 19.5t17 48.5z" />
    <glyph glyph-name="one.denominator" unicode="&#xe1e5;" horiz-adv-x="248" 
d="M176 0h-96v358h-55v86h151v-444z" />
    <glyph glyph-name="two.denominator" unicode="&#xe1e6;" horiz-adv-x="336" 
d="M322 0h-304v81l159 147q49 45 49 80q0 26 -16.5 42.5t-42.5 16.5q-58 0 -58 -80h-95q-1 3 -1 16q0 65 46.5 107.5t107.5 42.5q63 0 109 -43t46 -104q0 -73 -87 -149l-80 -71h167v-86z" />
    <glyph glyph-name="three.denominator" unicode="&#xe1e7;" horiz-adv-x="336" 
d="M139 207h-6v86h11q31 0 43 9t12 30q0 35 -34 35q-28 0 -28 -36h-96q3 55 38 88.5t88 33.5q51 0 89.5 -36.5t38.5 -85.5q0 -48 -34 -76q32 -14 49.5 -44.5t17.5 -69.5q0 -63 -47.5 -106.5t-114.5 -43.5q-64 0 -109 41.5t-49 106.5h96q2 -28 20 -45t45 -17t45 18.5t18 45.5
q0 34 -21.5 50t-71.5 16z" />
    <glyph glyph-name="four.denominator" unicode="&#xe1e8;" horiz-adv-x="378" 
d="M311 0h-90v65h-198v70l212 309h76v-297h49v-82h-49v-65zM221 147v159h-2l-97 -159h99z" />
    <glyph glyph-name="five.denominator" unicode="&#xe1e9;" horiz-adv-x="359" 
d="M301 358h-155l-12 -72q26 19 62 19q64 0 104.5 -42.5t40.5 -108.5q0 -71 -45.5 -117t-116.5 -46q-63 0 -108.5 40.5t-54.5 106.5h93q14 -61 69 -61q31 0 49 20t18 53q0 30 -18.5 49.5t-48.5 19.5q-40 0 -66 -32l-77 18l42 239h224v-86z" />
    <glyph glyph-name="six.denominator" unicode="&#xe1ea;" horiz-adv-x="355" 
d="M175 305l1 -1q8 6 30 6q58 0 98.5 -44.5t40.5 -106.5q0 -71 -47 -119.5t-118 -48.5q-70 0 -118.5 47.5t-48.5 115.5q0 58 42 120l112 170h113zM179 77q31 0 50.5 20.5t19.5 54.5q0 33 -19.5 55t-51.5 22q-30 0 -50 -20.5t-20 -53.5q0 -34 19.5 -56t51.5 -22z" />
    <glyph glyph-name="seven.denominator" unicode="&#xe1eb;" horiz-adv-x="317" 
d="M137 0h-103l160 357h-176v87h277v-83z" />
    <glyph glyph-name="eight.denominator" unicode="&#xe1ec;" horiz-adv-x="354" 
d="M276 244q62 -38 62 -108q0 -62 -47 -103.5t-113 -41.5q-68 0 -115 42t-47 102q0 71 61 110q-38 33 -38 80q0 52 40.5 90t98.5 38q57 0 97 -37.5t40 -90.5q0 -49 -39 -81zM227 328q0 18 -12.5 30.5t-36.5 12.5q-23 0 -37 -13t-14 -33q0 -19 13.5 -32t36.5 -13
q24 0 37 13.5t13 34.5zM245 137q0 29 -18.5 47t-50.5 18q-28 0 -47 -18.5t-19 -46.5q0 -25 19 -42.5t48 -17.5q30 0 49 17.5t19 42.5z" />
    <glyph glyph-name="nine.denominator" unicode="&#xe1ed;" horiz-adv-x="355" 
d="M188 0h-113l105 139l-1 1q-7 -6 -30 -6q-59 0 -99 44.5t-40 106.5q0 71 47 119.5t118 48.5t119 -48t48 -115q0 -56 -36 -112zM177 215q31 0 50.5 20.5t19.5 53.5q0 35 -19.5 56.5t-52.5 21.5q-30 0 -49.5 -21t-19.5 -54q0 -34 19.5 -55.5t51.5 -21.5z" />
    <glyph glyph-name="zero.fitted" unicode="&#xe1ff;" horiz-adv-x="577" 
d="M537 510v-281q0 -106 -70 -175t-181 -69q-96 0 -171 65.5t-75 177.5v281q0 108 70.5 177t182.5 69q105 0 174.5 -71.5t69.5 -173.5zM404 242v266q0 50 -32.5 85.5t-82.5 35.5q-52 0 -84 -36.5t-32 -89.5v-258q0 -59 31 -96.5t85 -37.5t84.5 36.5t30.5 94.5z" />
    <glyph glyph-name="one.fitted" unicode="&#xe200;" horiz-adv-x="353" 
d="M253 0h-133v614h-105v126h238v-740z" />
    <glyph glyph-name="two.fitted" unicode="&#xe201;" horiz-adv-x="552" 
d="M512 0h-479v126l266 247q80 74 80 145q0 48 -30 79.5t-78 31.5q-45 0 -79 -32.5t-34 -100.5v-10h-132q-1 5 -1 16q0 115 72.5 184t170.5 69q103 0 173.5 -71t70.5 -172q0 -64 -32.5 -123.5t-110.5 -128.5l-150 -134h293v-126z" />
    <glyph glyph-name="three.fitted" unicode="&#xe202;" horiz-adv-x="570" 
d="M239 354h-20v126h21q47 0 71 21.5t24 57.5q0 70 -66 70q-27 0 -45.5 -19t-20.5 -49h-133q7 92 64 143t135 51q81 0 140 -59.5t59 -140.5q0 -85 -64 -131q57 -24 87 -74t30 -117q0 -105 -74 -176.5t-180 -71.5q-101 0 -172 67t-78 171h133q5 -49 39 -80.5t81 -31.5
q48 0 83 36t35 84q0 55 -39 89t-110 34z" />
    <glyph glyph-name="four.fitted" unicode="&#xe203;" horiz-adv-x="586" 
d="M479 0h-133v111h-334v109l355 520h112v-503h88v-126h-88v-111zM346 237v278h-2l-189 -278h191z" />
    <glyph glyph-name="five.fitted" unicode="&#xe204;" 
d="M177 320l-119 33l70 387h335v-126h-235l-24 -136q52 21 95 21q100 0 168 -77t68 -179q0 -106 -74.5 -182t-182.5 -76q-97 0 -173 68.5t-80 166.5h133q9 -51 40.5 -80t76.5 -29q55 0 91 39t36 93q0 51 -36 90.5t-89 39.5q-59 0 -100 -53z" />
    <glyph glyph-name="six.fitted" unicode="&#xe205;" horiz-adv-x="555" 
d="M447 739l-164 -250q9 3 31 3q95 0 159.5 -71.5t64.5 -169.5q0 -111 -74.5 -188.5t-181.5 -77.5q-110 0 -183.5 77.5t-73.5 187.5q0 83 61 176l205 313h156zM282 111q51 0 87 37.5t36 90.5t-36.5 91.5t-90.5 38.5q-49 0 -84.5 -37t-35.5 -88q0 -55 36 -94t88 -39z" />
    <glyph glyph-name="seven.fitted" unicode="&#xe206;" horiz-adv-x="481" 
d="M196 0h-148l276 614h-319v126h458v-126z" />
    <glyph glyph-name="eight.fitted" unicode="&#xe207;" 
d="M417 411q110 -60 110 -186q0 -99 -73.5 -169.5t-173.5 -70.5t-173.5 70.5t-73.5 169.5q0 127 110 186q-66 61 -66 140q0 85 59 144.5t144 59.5q86 0 145 -59.5t59 -144.5q0 -73 -67 -140zM359 549q0 33 -23.5 56.5t-56.5 23.5q-30 0 -53.5 -23.5t-23.5 -56.5
q0 -32 23 -55.5t55 -23.5t55.5 23.5t23.5 55.5zM394 225q0 46 -33.5 80t-81.5 34q-46 0 -79.5 -34t-33.5 -80q0 -47 33.5 -80.5t80.5 -33.5t80.5 34t33.5 80z" />
    <glyph glyph-name="nine.fitted" unicode="&#xe208;" 
d="M269 0h-156l164 250q-15 -3 -32 -3q-93 0 -158 70t-65 171q0 109 74 187.5t182 78.5q110 0 183.5 -77t73.5 -188q0 -86 -61 -178zM279 370q51 0 87 37t36 88q0 54 -35 93.5t-89 39.5q-51 0 -87 -38t-36 -90q0 -56 35 -93t89 -37z" />
    <glyph glyph-name="parenleft.cap" unicode="&#xe209;" horiz-adv-x="380" 
d="M350 7v-144q-133 52 -204.5 183.5t-71.5 322.5t71 322t205 184v-144q-139 -98 -139 -362t139 -362z" />
    <glyph glyph-name="parenright.cap" unicode="&#xe20a;" horiz-adv-x="380" 
d="M37 -137v144q139 100 139 362q0 265 -139 362v144q134 -54 205 -185.5t71 -320.5q0 -190 -71 -321.5t-205 -184.5z" />
    <glyph glyph-name="bracketleft.cap" unicode="&#xe20b;" horiz-adv-x="320" 
d="M284 9v-146q-107 25 -162.5 110t-55.5 221v381q0 236 218 300v-146q-48 -20 -64.5 -64.5t-16.5 -120.5v-373q0 -132 81 -162z" />
    <glyph glyph-name="bracketright.cap" unicode="&#xe20c;" horiz-adv-x="320" 
d="M36 -137v147q45 17 63 61t18 122v374q0 130 -81 162v146q108 -25 163 -110t55 -221v-381q0 -236 -218 -300z" />
    <glyph glyph-name="braceleft.cap" unicode="&#xe20d;" horiz-adv-x="340" 
d="M317 -99h-85q-52 0 -95 39t-43 96v221q0 29 -25.5 48t-71.5 20v99q47 1 72 17t25 42v221q0 60 45.5 97.5t89.5 37.5h88v-90h-47q-39 0 -39 -62v-217q0 -41 -31.5 -66t-93.5 -28v-3q67 -3 96 -28t29 -75v-217q0 -62 39 -62h47v-90z" />
    <glyph glyph-name="braceright.cap" unicode="&#xe20e;" horiz-adv-x="340" 
d="M108 -99h-85v90h47q39 0 39 62v217q0 50 29 75t96 28v3q-62 3 -93.5 28t-31.5 66v217q0 62 -39 62h-47v90h88q44 0 89.5 -37.5t45.5 -97.5v-221q0 -26 25 -42t72 -17v-99q-46 -1 -71.5 -20t-25.5 -48v-221q0 -57 -43 -96t-95 -39z" />
    <glyph glyph-name="guilsinglleft.cap" unicode="&#xe20f;" horiz-adv-x="240" 
d="M190 189l-140 131v101l140 129v-123l-67 -57l67 -58v-123z" />
    <glyph glyph-name="guilsinglright.cap" unicode="&#xe210;" horiz-adv-x="240" 
d="M190 320l-140 -131v123l68 58l-68 57v123l140 -129v-101z" />
    <glyph glyph-name="guillemotleft.cap" unicode="&#xe211;" horiz-adv-x="460" 
d="M201 189l-140 131v101l140 129v-123l-68 -57l68 -58v-123zM400 189l-140 131v101l140 129v-123l-68 -57l68 -58v-123z" />
    <glyph glyph-name="guillemotright.cap" unicode="&#xe212;" horiz-adv-x="460" 
d="M201 320l-140 -131v123l68 58l-68 57v123l140 -129v-101zM400 320l-140 -131v123l68 58l-68 57v123l140 -129v-101z" />
    <glyph glyph-name="hyphen.cap" unicode="&#xe213;" horiz-adv-x="420" 
d="M349 311h-278v118h278v-118z" />
    <glyph glyph-name="endash.cap" unicode="&#xe214;" horiz-adv-x="500" 
d="M465 311h-430v118h430v-118z" />
    <glyph glyph-name="emdash.cap" unicode="&#xe215;" horiz-adv-x="1000" 
d="M965 311h-930v118h930v-118z" />
    <glyph glyph-name="exclamdown.cap" unicode="&#xe216;" horiz-adv-x="280" 
d="M207 613h-133v127h133v-127zM207 0h-133v551h133v-551z" />
    <glyph glyph-name="questiondown.cap" unicode="&#xe217;" 
d="M366 607h-133v133h133v-133zM388 216h133q-5 -61 -28 -108t-57 -72.5t-70.5 -38t-74.5 -12.5q-97 0 -160 65t-63 163q0 45 20.5 85.5t75.5 91.5q46 43 57.5 66.5t11.5 75.5v21h133v-19q0 -74 -21 -122.5t-80 -98.5q-38 -33 -51 -53.5t-13 -47.5q0 -43 25 -68.5t69 -25.5
q42 0 64 22.5t29 75.5z" />
    <glyph glyph-name="periodcentered.cap" unicode="&#xe218;" horiz-adv-x="280" 
d="M206 279h-133v133h133v-133z" />
    <glyph glyph-name="circumflexalt" horiz-adv-x="715" 
d="M782 798h-131l-80 67l-80 -67h-133l170 154h88z" />
    <glyph glyph-name="dieresisalt" horiz-adv-x="715" 
d="M535 801h-126v142h126v-142zM751 801h-126v142h126v-142z" />
    <glyph glyph-name="tildealt" horiz-adv-x="715" 
d="M707 935l46 -88q-54 -37 -109 -37q-23 0 -81 14t-82 14q-42 0 -77 -26l-46 90q52 36 106 36q25 0 83 -14t82 -14q48 0 78 25z" />
    </font>
</defs>
</svg>
